Subcategories
Tags
Language
Tags

Lady Gaga - Joanne (2016) Japanese Edition [Re-Up]

Posted By: Designol
Lady Gaga - Joanne (2016) Japanese Edition [Re-Up]

Lady Gaga - Joanne (2016) Japanese Edition
EAC | FLAC | Image (Cue&Log) ~ 311 Mb | Mp3 (CBR320) ~ 120 Mb | Scans ~ 379 Mb
Label: Streamline/Interscope | # UICS-1316 | Time: 00:50:48
Pop, Pop/Rock, Dance-Pop

Joanne is the fifth studio album recorded by American singer Lady Gaga. It was released on October 21, 2016, through Streamline and Interscope Records as a follow-up to Artpop (2013) and Cheek to Cheek (2014). Gaga collaborated with several producers on the record, including Mark Ronson, Jeff Bhasker, BloodPop and RedOne, and co-produced the majority of the material. The music of Joanne features "stripped-down" soft rock and dance-pop styles in order to emphasis the singer's vocal abilities, unlike on Artpop. Lyrically, the album delves on the theme of family and life's emotions, with the death of her father's sister, Joanne Stefani Germanotta, having a deep influence on the record. Japanese Edition contain bonus tracks.

It's difficult not to view Joanne through the prism of Artpop, the 2013 album where Lady Gaga's expanding fame balloon finally popped. Ambitious but muddled, Artpop debuted high but came crashing down to the ground, stalling out after the second single, the R. Kelly duet "Do What U Want." Gaga quickly retreated to the confines of cabaret, cutting a nicely accomplished standards album with Tony Bennett, a move that not only gave her the opportunity to work with a legend, but signaled that she considered Artpop a step too far: The camp of Cheek to Cheek was elegant, not garish, an acknowledgment that she was once again back in control of her joke. It set the stage for Joanne, a clever streamlining of the Lady Gaga persona that functions as the opposite of Artpop. All the excesses are excised while the eccentricities are used as accents on songs that are usually well-rendered pop. A few numbers take a passing glance at country music – the title "Joanne" winks at Dolly Parton's "Jolene"; in a different arrangement, the ballad "Million Reasons" could be an adult contemporary crossover from Faith Hill or Shania Twain – but Gaga's feet remain firmly planted in dance-pop even when she brings in Father John Misty, Beck, Florence Welch, and Josh Homme of Queens of the Stone Age for collaborations. Homme co-wrote "Diamond Heart" and "John Wayne," two of the harder disco songs here, while Misty assists on the steady rolling "Sinner's Prayer" – perhaps the best fusion of country and pop here – and "Come to Mama," a buoyant throwback to Motown that finds a companion on the Welch duet "Hey Girl," an analog slow jam that floats in the shimmer light. These, plus the riotous "A-Yo" and the masturbation ode "Dancin' in Circles," don't necessarily find comfortable companions in the ballads peppered throughout the album, but executive producer Mark Ronson helps polish Joanne so it flows easily, which is its appeal but also its Achilles Heel. Where previous Gaga albums were high-wire acts, Joanne is decidedly earth-bound, a record made by an artist determined to execute only the stunts she knows how to pull off.

Stephen Thomas Erlewine, All Music Guide

Lady Gaga - Joanne (2016) Japanese Edition [Re-Up]



Tracklist:

01. Diamond Heart (3:30)
02. A-YO (3:28)
03. Joanne (3:17)
04. John Wayne (2:54)
05. Dancin' In Circles (3:27)
06. Perfect Illusion (3:02)
07. Million Reasons (3:25)
08. Sinner's Prayer (3:43)
09. Come To Mama (4:15)
10. Hey Girl (4:15)
11. Angel Down (3:49)
12. Grigio Girls (3:00)
13. Just Another Day (2:58)
14. Angel Down (Work Tape) (2:20)
15. Million Reasons (Work Tape) (3:23)


Exact Audio Copy V1.2 from 12. August 2016

EAC extraction logfile from 21. November 2016, 18:36

Lady Gaga / Joanne

Used drive : ATAPI iHAS124 E Adapter: 1 ID: 0

Read mode : Secure
Utilize accurate stream : Yes
Defeat audio cache : Yes
Make use of C2 pointers : No

Read offset correction : 6
Overread into Lead-In and Lead-Out : No
Fill up missing offset samples with silence : Yes
Delete leading and trailing silent blocks : No
Null samples used in CRC calculations : Yes
Used interface : Native Win32 interface for Win NT & 2000
Gap handling : Appended to previous track

Used output format : User Defined Encoder
Selected bitrate : 896 kBit/s
Quality : High
Add ID3 tag : No
Command line compressor : C:\Program Files (x86)\Exact Audio Copy\Flac\flac.exe
Additional command line options : -V -8 -T "Genre=%genre%" -T "Artist=%artist%" -T "Title=%title%" -T "Album=%albumtitle%" -T "Totaldiscs=%totalcds%" -T "Discnumber=%cdnumber%" -T "Date=%year%" -T "Tracknumber=%tracknr%" -T "Comment=%comment%" -T "Composer=%composer%" %source%


TOC of the extracted CD

Track | Start | Length | Start sector | End sector
––––––––––––––––––––––––––––-
1 | 0:00.00 | 3:30.32 | 0 | 15781
2 | 3:30.32 | 3:27.54 | 15782 | 31360
3 | 6:58.11 | 3:16.68 | 31361 | 46128
4 | 10:15.04 | 2:54.23 | 46129 | 59201
5 | 13:09.27 | 3:27.13 | 59202 | 74739
6 | 16:36.40 | 3:02.00 | 74740 | 88389
7 | 19:38.40 | 3:25.21 | 88390 | 103785
8 | 23:03.61 | 3:43.29 | 103786 | 120539
9 | 26:47.15 | 4:14.58 | 120540 | 139647
10 | 31:01.73 | 4:15.31 | 139648 | 158803
11 | 35:17.29 | 3:49.11 | 158804 | 175989
12 | 39:06.40 | 3:00.35 | 175990 | 189524
13 | 42:07.00 | 2:58.00 | 189525 | 202874
14 | 45:05.00 | 2:19.62 | 202875 | 213361
15 | 47:24.62 | 3:23.06 | 213362 | 228592


Track 1

Filename D:\CDrip\01. Diamond Heart.wav

Pre-gap length 0:00:02.00

Peak level 99.8 %
Extraction speed 5.0 X
Track quality 100.0 %
Test CRC 19EB3927
Copy CRC 19EB3927
Track not present in AccurateRip database
Copy OK

Track 2

Filename D:\CDrip\02. A-YO.wav

Peak level 99.8 %
Extraction speed 5.5 X
Track quality 100.0 %
Test CRC D72CC210
Copy CRC D72CC210
Track not present in AccurateRip database
Copy OK

Track 3

Filename D:\CDrip\03. Joanne.wav

Peak level 99.8 %
Extraction speed 5.8 X
Track quality 100.0 %
Test CRC 5C9BD2F6
Copy CRC 5C9BD2F6
Track not present in AccurateRip database
Copy OK

Track 4

Filename D:\CDrip\04. John Wayne.wav

Peak level 99.8 %
Extraction speed 5.2 X
Track quality 99.9 %
Test CRC 00AC4073
Copy CRC 00AC4073
Track not present in AccurateRip database
Copy OK

Track 5

Filename D:\CDrip\05. Dancin' In Circles.wav

Peak level 70.7 %
Extraction speed 5.8 X
Track quality 99.9 %
Test CRC 1F8391AB
Copy CRC 1F8391AB
Track not present in AccurateRip database
Copy OK

Track 6

Filename D:\CDrip\06. Perfect Illusion.wav

Peak level 99.7 %
Extraction speed 6.8 X
Track quality 100.0 %
Test CRC 4259D06A
Copy CRC 4259D06A
Track not present in AccurateRip database
Copy OK

Track 7

Filename D:\CDrip\07. Million Reasons.wav

Peak level 99.8 %
Extraction speed 7.3 X
Track quality 100.0 %
Test CRC 0F5F967F
Copy CRC 0F5F967F
Track not present in AccurateRip database
Copy OK

Track 8

Filename D:\CDrip\08. Sinner's Prayer.wav

Peak level 99.8 %
Extraction speed 7.7 X
Track quality 100.0 %
Test CRC 4B858442
Copy CRC 4B858442
Track not present in AccurateRip database
Copy OK

Track 9

Filename D:\CDrip\09. Come To Mama.wav

Peak level 99.8 %
Extraction speed 8.2 X
Track quality 100.0 %
Test CRC 63139778
Copy CRC 63139778
Track not present in AccurateRip database
Copy OK

Track 10

Filename D:\CDrip\10. Hey Girl.wav

Peak level 99.8 %
Extraction speed 8.5 X
Track quality 100.0 %
Test CRC 4C768E04
Copy CRC 4C768E04
Track not present in AccurateRip database
Copy OK

Track 11

Filename D:\CDrip\11. Angel Down.wav

Peak level 77.0 %
Extraction speed 8.7 X
Track quality 100.0 %
Test CRC D96306FF
Copy CRC D96306FF
Track not present in AccurateRip database
Copy OK

Track 12

Filename D:\CDrip\12. Grigio Girls.wav

Peak level 99.8 %
Extraction speed 8.6 X
Track quality 100.0 %
Test CRC EDCEF27D
Copy CRC EDCEF27D
Track not present in AccurateRip database
Copy OK

Track 13

Filename D:\CDrip\13. Just Another Day.wav

Peak level 99.8 %
Extraction speed 8.9 X
Track quality 100.0 %
Test CRC DE67DE4B
Copy CRC DE67DE4B
Track not present in AccurateRip database
Copy OK

Track 14

Filename D:\CDrip\14. Angel Down (Work Tape).wav

Peak level 84.4 %
Extraction speed 8.6 X
Track quality 100.0 %
Test CRC DBEFA1FB
Copy CRC DBEFA1FB
Track not present in AccurateRip database
Copy OK

Track 15

Filename D:\CDrip\15. Million Reasons (Work Tape).wav

Peak level 90.7 %
Extraction speed 9.4 X
Track quality 100.0 %
Test CRC 83324A1E
Copy CRC 83324A1E
Track not present in AccurateRip database
Copy OK


None of the tracks are present in the AccurateRip database

No errors occurred

End of status report

–– CUETools DB Plugin V2.1.6

[CTDB TOCID: _k8aEo.7TgsLBXEG_gmNLxdjtA8-] found
Submit result: _k8aEo.7TgsLBXEG_gmNLxdjtA8- has been confirmed
Track | CTDB Status
1 | (23/23) Accurately ripped
2 | (23/23) Accurately ripped
3 | (23/23) Accurately ripped
4 | (23/23) Accurately ripped
5 | (23/23) Accurately ripped
6 | (23/23) Accurately ripped
7 | (23/23) Accurately ripped
8 | (23/23) Accurately ripped
9 | (23/23) Accurately ripped
10 | (23/23) Accurately ripped
11 | (23/23) Accurately ripped
12 | (23/23) Accurately ripped
13 | (23/23) Accurately ripped
14 | (23/23) Accurately ripped
15 | (23/23) Accurately ripped


==== Log checksum AE4EF032DB24A257683A3A74575081236A185C4F85840C1B8B45CFA8CBFDA6D1 ====

foobar2000 1.2 / Dynamic Range Meter 1.1.1
log date: 2016-11-22 02:27:30

––––––––––––––––––––––––––––––––––––––––
Analyzed: Lady Gaga feat. Florence Welch / Joanne (1)
Lady Gaga / Joanne (2-15)
––––––––––––––––––––––––––––––––––––––––

DR Peak RMS Duration Track
––––––––––––––––––––––––––––––––––––––––
DR8 -0.01 dB -9.38 dB 4:15 10-Hey Girl
DR5 -0.01 dB -7.57 dB 3:30 01-Diamond Heart
DR7 -0.01 dB -9.03 dB 3:28 02-A-YO
DR8 -0.01 dB -11.08 dB 3:17 03-Joanne
DR5 -0.01 dB -7.11 dB 2:54 04-John Wayne
DR6 -3.01 dB -10.00 dB 3:27 05-Dancin' In Circles
DR6 -0.02 dB -8.42 dB 3:02 06-Perfect Illusion
DR7 -0.01 dB -11.08 dB 3:25 07-Million Reasons
DR7 -0.01 dB -9.02 dB 3:43 08-Sinner's Prayer
DR6 -0.01 dB -8.41 dB 4:15 09-Come To Mama
DR9 -2.27 dB -13.44 dB 3:49 11-Angel Down
DR8 -0.01 dB -11.82 dB 3:00 12-Grigio Girls
DR10 -0.01 dB -11.73 dB 2:58 13-Just Another Day
DR8 -1.47 dB -12.81 dB 2:20 14-Angel Down (Work Tape)
DR11 -0.85 dB -16.01 dB 3:23 15-Million Reasons (Work Tape)
––––––––––––––––––––––––––––––––––––––––

Number of tracks: 15
Official DR value: DR8

Samplerate: 44100 Hz
Channels: 2
Bits per sample: 16
Bitrate: 652 kbps
Codec: FLAC
================================================================================

Lady Gaga - Joanne (2016) Japanese Edition [Re-Up]

Lady Gaga - Joanne (2016) Japanese Edition [Re-Up]

All thanks to original releaser - alxsha

More interesting music in My Blog