Lamont Dozier - Right There (1976) [2001 Reissue]

Posted By: JET 1
Lamont Dozier - Right There (1976) [2001 Reissue]

Lamont Dozier - Right There (1976) [2001 Reissue]
EAC Rip | FLAC (Tracks) +CUE, LOG | 315 MB | Covers Included
Soul | Label: Sanctuary Music | Catalog Number: CMAR711

Singer/songwriter/producer Lamont Dozier was part of the legendary Motown production team of Holland-Dozier-Holland. A galvanizing force in the '60s pop and R&B chart-dominance of the Detroit-based independent record label, the trio later formed Invictus and Hot Wax Records, and enjoyed gold-record-laced success with the Chairmen of the Board, Freda Payne, 100 Proof Aged in Soul, the Honey Cone, and 8th Day.

Lamont Dozier enlisted Grade A L.A. musicians, including fellow Motown alumnus, bassist James Jamerson, for his 1976 Warner Bros. debut, Right There – an engaging set of soul and pop music. The first single, the smooth ballad "Can't Get Off Until the Feeling Stops," was in the vein of his earlier hit, ""Let Me Start Tonite." Dozier vocally milks the smooth-as-molasses groovers: "Groovin' on a Natural High," "With a Little Bit of Mending (We Could Be as Good as New)," "Joy," "Ain't Never Loved Nobody (Like I Love You)," "Wild Frame of Mind," and "Good Eye." The singer/songwriter/producer reworks The Four Tops' "It's the Same Old Song," giving it a restrained, classical sheen through the use of a prominent string section. Right There runs a very close second to being Dozier's best, and most consistent LP, but that distinction belongs to Working On You. Ed Hogan - Allmusic.com


Exact Audio Copy V1.0 beta 3 from 29. August 2011

EAC extraction logfile from 1. July 2014, 18:09

Lamont Dozier / Right There

Used drive : GENERIC CDRCB05 Adapter: 3 ID: 0

Read mode : Secure
Utilize accurate stream : Yes
Defeat audio cache : Yes
Make use of C2 pointers : No

Read offset correction : 102
Overread into Lead-In and Lead-Out : No
Fill up missing offset samples with silence : Yes
Delete leading and trailing silent blocks : No
Null samples used in CRC calculations : Yes
Used interface : Native Win32 interface for Win NT & 2000
Gap handling : Appended to previous track

Used output format : User Defined Encoder
Selected bitrate : 1024 kBit/s
Quality : High
Add ID3 tag : No
Command line compressor : C:\Program Files\FLAC\flac.exe
Additional command line options : -8 -V -T "ARTIST=%artist%" -T "TITLE=%title%" -T "ALBUM=%albumtitle%" -T "DATE=%year%" -T "TRACKNUMBER=%tracknr%" -T "GENRE=%genre%" -T "PERFORMER=%albuminterpret%" -T "COMPOSER=%composer%" %haslyrics%–tag-from-file=LYRICS="%lyricsfile%"%haslyrics% -T "ALBUMARTIST=%albumartist%" -T "DISCNUMBER=%cdnumber%" -T "TOTALDISCS=%totalcds%" -T "TOTALTRACKS=%numtracks%" -T "COMMENT=%comment%" %source% -o %dest%


TOC of the extracted CD

Track | Start | Length | Start sector | End sector
––––––––––––––––––––––––––––-
1 | 0:00.00 | 4:20.70 | 0 | 19569
2 | 4:20.70 | 3:57.47 | 19570 | 37391
3 | 8:18.42 | 5:54.55 | 37392 | 63996
4 | 14:13.22 | 4:26.53 | 63997 | 83999
5 | 18:40.00 | 4:01.22 | 84000 | 102096
6 | 22:41.22 | 5:03.48 | 102097 | 124869
7 | 27:44.70 | 4:39.72 | 124870 | 145866
8 | 32:24.67 | 4:05.13 | 145867 | 164254
9 | 36:30.05 | 4:10.65 | 164255 | 183069
10 | 40:40.70 | 4:25.05 | 183070 | 202949


Track 1

Filename F:\0\POST\Lamont Dozier - Right There\01 It's the Same Old Song.wav

Pre-gap length 0:00:02.00

Peak level 99.7 %
Extraction speed 1.3 X
Track quality 99.9 %
Test CRC 1F71A4C8
Copy CRC 1F71A4C8
Cannot be verified as accurate (confidence 1) [CE512CBC], AccurateRip returned [DAEBAD14] (AR v2)
Copy OK

Track 2

Filename F:\0\POST\Lamont Dozier - Right There\02 Right There.wav

Peak level 97.1 %
Extraction speed 1.6 X
Track quality 100.0 %
Test CRC 387B7DD8
Copy CRC 387B7DD8
Cannot be verified as accurate (confidence 1) [89C06F00], AccurateRip returned [9813B001] (AR v2)
Copy OK

Track 3

Filename F:\0\POST\Lamont Dozier - Right There\03 Jump Right on In.wav

Pre-gap length 0:00:02.62

Peak level 99.7 %
Extraction speed 1.8 X
Track quality 100.0 %
Test CRC EDF64E12
Copy CRC EDF64E12
Cannot be verified as accurate (confidence 1) [29767D34], AccurateRip returned [EA34FA57] (AR v2)
Copy OK

Track 4

Filename F:\0\POST\Lamont Dozier - Right There\04 Groovin' on a Natural High.wav

Pre-gap length 0:00:02.62

Peak level 99.7 %
Extraction speed 1.9 X
Track quality 100.0 %
Test CRC 8C4B896A
Copy CRC 8C4B896A
Cannot be verified as accurate (confidence 1) [311CE33D], AccurateRip returned [9CD42E6F] (AR v2)
Copy OK

Track 5

Filename F:\0\POST\Lamont Dozier - Right There\05 Can't Get Off Until the Feeling Stops.wav

Pre-gap length 0:00:02.64

Peak level 97.1 %
Extraction speed 2.0 X
Track quality 100.0 %
Test CRC E007C539
Copy CRC E007C539
Cannot be verified as accurate (confidence 1) [3A5383E2], AccurateRip returned [715BA2D2] (AR v2)
Copy OK

Track 6

Filename F:\0\POST\Lamont Dozier - Right There\06 Good Eye.wav

Pre-gap length 0:00:02.62

Peak level 99.7 %
Extraction speed 2.2 X
Track quality 100.0 %
Test CRC 6B5FE5F1
Copy CRC 6B5FE5F1
Cannot be verified as accurate (confidence 1) [AF215594], AccurateRip returned [5848C074] (AR v2)
Copy OK

Track 7

Filename F:\0\POST\Lamont Dozier - Right There\07 With a Little Bit of Mending (We Could Be as Good as New).wav

Pre-gap length 0:00:02.64

Peak level 99.7 %
Extraction speed 2.3 X
Track quality 100.0 %
Test CRC 9A84FB95
Copy CRC 9A84FB95
Cannot be verified as accurate (confidence 1) [8DA38FD9], AccurateRip returned [DE6A386B] (AR v2)
Copy OK

Track 8

Filename F:\0\POST\Lamont Dozier - Right There\08 In a Wild Frame of Mind.wav

Pre-gap length 0:00:02.62

Peak level 99.7 %
Extraction speed 2.4 X
Track quality 100.0 %
Test CRC 23F012CA
Copy CRC 23F012CA
Cannot be verified as accurate (confidence 1) [05ADAD47], AccurateRip returned [954EEC96] (AR v2)
Copy OK

Track 9

Filename F:\0\POST\Lamont Dozier - Right There\09 Ain't Never Loved Nobody (Like I Love You).wav

Pre-gap length 0:00:02.64

Peak level 99.7 %
Extraction speed 2.5 X
Track quality 100.0 %
Test CRC 084DB6ED
Copy CRC 084DB6ED
Cannot be verified as accurate (confidence 1) [EA4F8397], AccurateRip returned [2206C092] (AR v2)
Copy OK

Track 10

Filename F:\0\POST\Lamont Dozier - Right There\10 Joy.wav

Pre-gap length 0:00:02.66

Peak level 97.1 %
Extraction speed 2.6 X
Track quality 100.0 %
Test CRC DF80C236
Copy CRC DF80C236
Cannot be verified as accurate (confidence 1) [74864955], AccurateRip returned [B69D2367] (AR v2)
Copy OK


No tracks could be verified as accurate
You may have a different pressing from the one(s) in the database

No errors occurred

End of status report

==== Log checksum 8167BB0718C699693F6C0435C71D3BE72735DCA1784012747AE6CAF4D2CB1BD8 ====


Tracklist:

1. It's The Same Old Song (4:20)
2. Right There (3:57)
3. Jump Right On In (5:54)
4. Groovin' On A Natural High (4:26)
5. Can't Get Off Until The Feeling Stops (4:01)
6. Good Eye (5:03)
7. With A Little Bit Of Mending (We Could Be As Good As New) (4:40)
8. In A Wild Frame Of Mind (4:05)
9. Ain't Never Loved Nobody (Like I Love You) (4:10)
10. Joy (4:34)

Lamont Dozier - Right There (1976) [2001 Reissue]
Filepost:

Download