Subcategories

Lara Fabian - Camouflage (2017)

Posted By: SERTiL
Lara Fabian - Camouflage (2017)

Lara Fabian - Camouflage
Pop | WEB FLAC (tracks) & front cover | 40:29 min | 253 MB
Label: 9 Productions | Tracks: 12 | Rls.date: 2017

The Canadian-Belgian artist Lara Fabian will release her highly-anticipated new studio album, 'Camouflage', on 6th October 2017. After more than 20 million albums sold worldwide, and following her latest platinum-certified French album in late 2015, she returns to the international scene with her 13th studio album, which was made in Stockholm, LA and Brussels and consists of twelve new songs, all in English, written and composed by Fabian together with Moh Denebi and Sharon Vaughn. The record unites Fabian's signature vocals with an electronic production combined with classic orchestration to create a sound that is both modern and timeless. 'Camouflage' is produced by Moh Denebi, who is one of the most prominent exponents of the modern and all-pervading Swedish pop sound, while Sharon Vaughn is an American songwriter who has previously worked with pop and country artists such as Willie Nelson, Dolly Parton, Agnes and Boyzone. 2017 sees her being inducted into the Nashville Songwriters Foundation's 'Hall of Fame' for her contribution to music.

TRACKLIST
01. Growing Wings 02:57
02. Chameleon 03:19
03. If I Let You Love Me 03:35
04. Choose What You Love Most (Let It Kill You) 03:53
05. We Are the Flyers 04:05
06. Painting in the Rain 03:27
07. Camouflage 03:11
08. I'm Breakable 02:35
09. Keep the Animals Away 03:32
10. We Are the Storm 03:39
11. Perfect 03:00
12. Communify 03:16

PERFORMER: auCDtect Task Manager, ver. 1.6.0 RC1 build 1.6.0.1
Copyright © 2008-2010 y-soft. All rights reserved

ANALYZER: auCDtect: CD records authenticity detector, version 0.8.2
Copyright © 2004 Oleg Berngardt. All rights reserved.
Copyright © 2004 Alexander Djourik. All rights reserved.


FILE: 12 Communify.flac
Size: 24022288 Hash: 64E191A6E9F0D460B23F11C254B94477 Accuracy: -m0
Conclusion: CDDA 100%
Signature: 20666D9EB39AA34763AAA51B15AB42BA28FE8FC6
FILE: 11 Perfect.flac
Size: 19962486 Hash: 473BA7360B21926BE2103F55C966084B Accuracy: -m0
Conclusion: CDDA 100%
Signature: 678DC3262572086646B98CC3FECFDE671FD2FAF6
FILE: 10 We are the Storm.flac
Size: 25710008 Hash: 4246CBA62588849AC1D249F7F69418D4 Accuracy: -m0
Conclusion: CDDA 100%
Signature: DD219BE1D93FD573350F78FC99003AC7D874BFA2
FILE: 09 Keep the Animals Away.flac
Size: 24152046 Hash: 8BC1BB5796ACA3D2E9B1835DBCE454C6 Accuracy: -m0
Conclusion: CDDA 100%
Signature: 1A481957F8468329EE7D3B281DC128B7F2B1CE97
FILE: 08 I'm Breakable.flac
Size: 15557692 Hash: 6192D9AB82F06F9B2B49D81C08490C6C Accuracy: -m0
Conclusion: CDDA 100%
Signature: 95B8A7D5AE15BE0274F3C53656767049744A0995
FILE: 07 Camouflage.flac
Size: 19066104 Hash: 7505B2A431F2B6CC5CD331DAE525995E Accuracy: -m0
Conclusion: CDDA 100%
Signature: 0C589442C610D8337BE94C57ADBCCC2DE36F2B62
FILE: 06 Painting in the Rain.flac
Size: 22594527 Hash: 22648F16772E379B990545C22990A78E Accuracy: -m0
Conclusion: CDDA 100%
Signature: 8BB4471A6D3CB1DF4044B429AD2263156D9DD846
FILE: 05 We are the Flyers.flac
Size: 24376122 Hash: F2CBFCA435CA89D5834B7CE62AF7F730 Accuracy: -m0
Conclusion: CDDA 100%
Signature: 5F0E4978426C1BB2C7713DB6E7BCB65AD8EFCB30
FILE: 04 Choose What You Love Most (Let It Kill You).flac
Size: 24404159 Hash: 9119148EB9201B1CCBAF18C1197C2E63 Accuracy: -m0
Conclusion: CDDA 99%
Signature: F36140E2AD415098B8492FE1D4581013A45AA915
FILE: 03 If I Let You Love Me.flac
Size: 23591165 Hash: 24618D7B6EC1A4B0DE57BA87063F22A9 Accuracy: -m0
Conclusion: CDDA 100%
Signature: 6227B84C5FBB12B4DCF64C36B4E761C885C1F980
FILE: 02 Chameleon.flac
Size: 22655012 Hash: 8D5FBF8D1B855218DF6D17E7D6F107E6 Accuracy: -m0
Conclusion: CDDA 100%
Signature: B3E146B0612565D175EF1744B6A30F9A376E7FC8
FILE: 01 Growing Wings.flac
Size: 19338321 Hash: A4CCB8D21E45C6CED36CCBF78C8E45F1 Accuracy: -m0
Conclusion: CDDA 100%
Signature: 7F06F6640595583E6496A99D7BEF1CAC9AFB606C

foobar2000 1.3.7 / Dynamic Range Meter 1.1.1
log date: 2017-10-07 11:24:58

––––––––––––––––––––––––––––––––––––––––
Analyzed: Lara Fabian / Camouflage
––––––––––––––––––––––––––––––––––––––––

DR Peak RMS Duration Track
––––––––––––––––––––––––––––––––––––––––
DR5 0.00 dB -7.32 dB 2:58 01-Growing Wings
DR5 0.00 dB -6.87 dB 3:19 02-Chameleon
DR6 0.00 dB -8.84 dB 3:36 03-If I Let You Love Me
DR5 0.00 dB -7.99 dB 3:53 04-Choose What You Love Most (Let It Kill You)
DR7 -0.05 dB -9.33 dB 4:05 05-We are the Flyers
DR5 0.00 dB -7.63 dB 3:28 06-Painting in the Rain
DR6 0.00 dB -8.25 dB 3:12 07-Camouflage
DR5 0.00 dB -7.86 dB 2:36 08-I'm Breakable
DR5 0.00 dB -7.43 dB 3:32 09-Keep the Animals Away
DR5 0.00 dB -7.76 dB 3:40 10-We are the Storm
DR6 0.00 dB -8.88 dB 3:01 11-Perfect
DR5 0.00 dB -6.33 dB 3:16 12-Communify
––––––––––––––––––––––––––––––––––––––––

Number of tracks: 12
Official DR value: DR5

Samplerate: 44100 Hz
Channels: 2
Bits per sample: 16
Bitrate: 968 kbps
Codec: FLAC
================================================================================


Thanks to the Original customer.