Subcategories

Larry Carlton & Steve Lukather - At Blue Note Tokyo (2016) {335 Records}

Posted By: tiburon
Larry Carlton & Steve Lukather - At Blue Note Tokyo (2016) {335 Records}

Larry Carlton & Steve Lukather - At Blue Note Tokyo (2016) {335 Records}
EAC 1.1 | FLAC Image level 6 | Cue+Log | Full Scans 400dpi | 474MB + 5% Recovery
MP3 CBR 320 Kbps | 182MB + 5% Recovery
Genre: Jazz, Fusion

Larry Carlton and Steve Lukather share the stage once again in this exceptional live recording at the famous Blue Note in Tokyo Japan. This 7 song concert features amazing tunes such as the famous Robert Johnson Crossroads and The Beatles While My Guitar Gently Weeps. The talent level of these two legends when paired together is unparalleled.
Track List
01. The Pump 14:22
02. Tutu 19:57
03. Lilies Of The Nile 7:45
04. Crossroads 4:26
05. Only Yesterday 9:47
06. Ben E Wah 12:58
07. While My Guitar Gently Weeps 5:19

Produced by Larry Carlton & Steve Lukather


Exact Audio Copy V1.1 from 23. June 2015

Отчёт EAC об извлечении, выполненном 30. ноября 2016, 23:03

Larry Carlton & Steve Lukather / At Blue Note Tokyo

Дисковод: ASUS DRW-22B3S Adapter: 1 ID: 2

Режим чтения : Достоверность
Использование точного потока : Да
Отключение кэша аудио : Да
Использование указателей C2 : Нет

Коррекция смещения при чтении : 6
Способность читать области Lead-in и Lead-out : Нет
Заполнение пропущенных сэмплов тишиной : Да
Удаление блоков с тишиной в начале и конце : Нет
При вычислениях CRC использовались нулевые сэмплы : Да
Интерфейс : Встроенный Win32-интерфейс для Win NT/2000

Выходной формат : Пользовательский кодировщик
Выбранный битрейт : 768 kBit/s
Качество : Высокий
Добавление ID3-тега : Нет
Утилита сжатия : C:\Program Files\Exact Audio Copy\FLAC\FLAC.EXE
Дополнительные параметры : -6 -V -T "ARTIST=%artist%" -T "TITLE=%title%" -T "ALBUM=%albumtitle%" -T "DATE=%year%" -T "TRACKNUMBER=%tracknr%" -T "GENRE=%genre%" -T "COMMENT=%comment%" -T "BAND=%albuminterpret%" -T "ALBUMARTIST=%albuminterpret%" -T "COMPOSER=%composer%" %haslyrics%–tag-from-file=LYRICS="%lyricsfile%"%haslyrics% -T "DISCNUMBER=%cdnumber%" -T "TOTALDISCS=%totalcds%" -T "TOTALTRACKS=%numtracks%" %hascover%–picture="%coverfile%"%hascover% %source% -o %dest%


TOC извлечённого CD

Трек | Старт | Длительность | Начальный сектор | Конечный сектор
––––––––––––––––––––––––––––––––––-
1 | 0:00.00 | 14:22.39 | 0 | 64688
2 | 14:22.39 | 19:56.64 | 64689 | 154452
3 | 34:19.28 | 7:45.51 | 154453 | 189378
4 | 42:05.04 | 4:26.39 | 189379 | 209367
5 | 46:31.43 | 9:47.16 | 209368 | 253408
6 | 56:18.59 | 12:58.45 | 253409 | 311803
7 | 69:17.29 | 5:19.22 | 311804 | 335750


Характеристики диапазона извлечения и сообщения об ошибках

Выбранный диапазон

Имя файла C:\Users\TITANIUM\Desktop\Larry Carlton & Steve Lukather - At Blue Note Tokyo - 2016 74'38''\Larry Carlton & Steve Lukather - At Blue Note Tokyo.wav

Пиковый уровень 100.0 %
Скорость извлечения 3.5 X
Качество диапазона 99.9 %
CRC теста 1E695636
CRC копии 1E695636
Копирование… OK

Ошибок не произошло

Конец отчёта

–– CUETools DB Plugin V2.1.6

[CTDB TOCID: zIl0AU6oTsx5CknI204FOAI2tMI-] found
Submit result: zIl0AU6oTsx5CknI204FOAI2tMI- has been confirmed
Track | CTDB Status
1 | (16/16) Accurately ripped
2 | (16/16) Accurately ripped
3 | (16/16) Accurately ripped
4 | (16/16) Accurately ripped
5 | (16/16) Accurately ripped
6 | (16/16) Accurately ripped
7 | (16/16) Accurately ripped


==== Контрольная сумма отчёта 51B21D6255E36B0881287FEAC0DE76DDEF896259BA2454BB8BBABBD95A7028A2 ====


––––––––––––––––––––––––––––––––––––––––
Analyzed: Larry Carlton & Steve Lukather / At Blue Note Tokyo
––––––––––––––––––––––––––––––––––––––––

DR Peak RMS Duration Track
––––––––––––––––––––––––––––––––––––––––
DR8 -0.27 dB -10.46 dB 14:23 01-The Pump
DR8 -0.85 dB -13.03 dB 19:57 02-Tutu
DR13 -1.00 dB -19.29 dB 7:46 03-Lilies Of The Nile
DR8 0.00 dB -10.41 dB 4:27 04-Crossroads
DR13 -0.86 dB -19.88 dB 9:47 05-Only Yesterday
DR8 -0.54 dB -11.14 dB 12:59 06-Ben E Wah
DR7 -0.71 dB -10.63 dB 5:19 07-While My Guitar Gently Weeps
––––––––––––––––––––––––––––––––––––––––

Number of tracks: 7
Official DR value: DR9

Samplerate: 44100 Hz
Channels: 2
Bits per sample: 16
Bitrate: 867 kbps
Codec: FLAC
================================================================================


Larry Carlton & Steve Lukather - At Blue Note Tokyo (2016) {335 Records}
Larry Carlton & Steve Lukather - At Blue Note Tokyo (2016) {335 Records}
Larry Carlton & Steve Lukather - At Blue Note Tokyo (2016) {335 Records}


Thanks to the original ripper