Subcategories

Larry Coryell - Seven Secrets (2016) {Savoy Jazz}

Posted By: tiburon
Larry Coryell - Seven Secrets (2016) {Savoy Jazz}

Larry Coryell - Seven Secrets (2016) {Savoy Jazz}
EAC 1.3 | FLAC tracks level 8 | Cue+Log+M3U | Full Scans 300dpi | 496MB + 5% Recovery
Genre: Fusion

The idea for reuniting this seminal '70s fusion group first came in 2015, when the lineup for a previously booked one-week engagement at New York's The Blue Note club unexpectedly fell through. Rather than cancel, Coryell suggested bringing most of the 11th House's original members back together—trumpeter Randy Brecker, drummer Alphonse Mouzon and bassist John Lee, who replaced founding bassist Danny Trifan for the group's second album, Level One (Arista, 1975)—along with, Coryell's son, guitarist Julian Coryell, replacing Mike Mandel due to the keyboardist's ill health.
Track List
01. Alabama Rhap Corollary 4:59
02. Mr. Miyake 5:01
03. Dragon's Way 8:03
04. Philly Flash 5:07
05. Molten Grace 5:16
06. Seven Secrets 6:45
07. The Dip 5:12
08. Having Second Thoughts 6:43
09. Some Funky Stuff 5:59
10. Mudhen Blues 5:48
11. Zodiac 4:56

musicians
Larry Coryell - electric guitar, acoustic guitar
Alphonse Mouzon - drums
Randy Brecker - trumpet
John Lee - bass
Julian Coryell - guitar

Produced by Larry Coryell, Alphonse Mouzon, Randy Brecker, John Lee and Julian Coryell


Exact Audio Copy V1.3 from 2. September 2016

EAC extraction logfile from 20. November 2017, 19:28

Larry Coryell / Seven Secrets

Used drive : HL-DT-STDVDRAM GH20NS10 Adapter: 1 ID: 0

Read mode : Secure
Utilize accurate stream : Yes
Defeat audio cache : Yes
Make use of C2 pointers : No

Read offset correction : 667
Overread into Lead-In and Lead-Out : No
Fill up missing offset samples with silence : Yes
Delete leading and trailing silent blocks : No
Null samples used in CRC calculations : Yes
Used interface : Native Win32 interface for Win NT & 2000
Gap handling : Appended to previous track

Used output format : User Defined Encoder
Selected bitrate : 1024 kBit/s
Quality : High
Add ID3 tag : No
Command line compressor : C:\Program Files\Exact Audio Copy\Flac\flac.exe
Additional command line options : -8 -V -T "ARTIST=%artist%" -T "TITLE=%title%" -T "ALBUM=%albumtitle%" -T "DATE=%year%" -T "TRACKNUMBER=%tracknr%" -T "TOTALTRACKS=%numtracks%" -T "GENRE=%genre%" -T "ALBUMARTIST=%albumartist%" -T "ALBUM ARTIST=%albumartist%" -T "COMMENT=EAC Secure Mode, Test & Copy, AccurateRip, FLAC -8" %source%


TOC of the extracted CD

Track | Start | Length | Start sector | End sector
––––––––––––––––––––––––––––-
1 | 0:00.00 | 5:00.03 | 0 | 22502
2 | 5:00.03 | 5:01.02 | 22503 | 45079
3 | 10:01.05 | 8:03.40 | 45080 | 81344
4 | 18:04.45 | 5:07.37 | 81345 | 104406
5 | 23:12.07 | 5:16.16 | 104407 | 128122
6 | 28:28.23 | 6:45.04 | 128123 | 158501
7 | 35:13.27 | 5:12.23 | 158502 | 181924
8 | 40:25.50 | 6:43.04 | 181925 | 212153
9 | 47:08.54 | 5:59.05 | 212154 | 239083
10 | 53:07.59 | 5:48.28 | 239084 | 265211
11 | 58:56.12 | 4:58.32 | 265212 | 287593


Track 1

Filename F:\Larry Coryell - Seven Secrets (2016) [FLAC]\01 - Alabama Rhap Corollary.wav

Pre-gap length 0:00:02.00

Peak level 98.9 %
Extraction speed 2.8 X
Track quality 100.0 %
Test CRC 13F9298D
Copy CRC 13F9298D
Cannot be verified as accurate (confidence 9) [15CF70A9], AccurateRip returned [4800BD3A] (AR v2)
Copy OK

Track 2

Filename F:\Larry Coryell - Seven Secrets (2016) [FLAC]\02 - Mr. Miyake.wav

Peak level 98.9 %
Extraction speed 3.2 X
Track quality 100.0 %
Test CRC AC0974BB
Copy CRC AC0974BB
Cannot be verified as accurate (confidence 9) [52EE2F35], AccurateRip returned [1373EB10] (AR v2)
Copy OK

Track 3

Filename F:\Larry Coryell - Seven Secrets (2016) [FLAC]\03 - Dragon's Way.wav

Peak level 98.8 %
Extraction speed 3.6 X
Track quality 100.0 %
Test CRC 5DCC0A4F
Copy CRC 5DCC0A4F
Cannot be verified as accurate (confidence 9) [2B1102F2], AccurateRip returned [CAF2153D] (AR v2)
Copy OK

Track 4

Filename F:\Larry Coryell - Seven Secrets (2016) [FLAC]\04 - Philly Flash.wav

Peak level 98.9 %
Extraction speed 3.9 X
Track quality 100.0 %
Test CRC 64269FE6
Copy CRC 64269FE6
Cannot be verified as accurate (confidence 9) [DA3D8AE1], AccurateRip returned [20CD25A4] (AR v2)
Copy OK

Track 5

Filename F:\Larry Coryell - Seven Secrets (2016) [FLAC]\05 - Molten Grace.wav

Peak level 78.5 %
Extraction speed 4.1 X
Track quality 100.0 %
Test CRC 32A7D576
Copy CRC 32A7D576
Cannot be verified as accurate (confidence 9) [AB8DE40A], AccurateRip returned [BBE396C6] (AR v2)
Copy OK

Track 6

Filename F:\Larry Coryell - Seven Secrets (2016) [FLAC]\06 - Seven Secrets.wav

Peak level 98.8 %
Extraction speed 3.9 X
Track quality 99.9 %
Test CRC CE77410F
Copy CRC CE77410F
Cannot be verified as accurate (confidence 9) [7E38BD50], AccurateRip returned [FAF3102E] (AR v2)
Copy OK

Track 7

Filename F:\Larry Coryell - Seven Secrets (2016) [FLAC]\07 - The Dip.wav

Peak level 98.8 %
Extraction speed 4.6 X
Track quality 100.0 %
Test CRC 92864B36
Copy CRC 92864B36
Cannot be verified as accurate (confidence 9) [02C8FED7], AccurateRip returned [2B2449EC] (AR v2)
Copy OK

Track 8

Filename F:\Larry Coryell - Seven Secrets (2016) [FLAC]\08 - Having Second Thoughts.wav

Peak level 98.8 %
Extraction speed 4.3 X
Track quality 99.9 %
Test CRC 21C7FDB2
Copy CRC 21C7FDB2
Cannot be verified as accurate (confidence 9) [3A7998D2], AccurateRip returned [1054789E] (AR v2)
Copy OK

Track 9

Filename F:\Larry Coryell - Seven Secrets (2016) [FLAC]\09 - Some Funky Stuff.wav

Peak level 98.8 %
Extraction speed 5.1 X
Track quality 100.0 %
Test CRC EE1D893F
Copy CRC EE1D893F
Cannot be verified as accurate (confidence 9) [204DBF51], AccurateRip returned [F70DA826] (AR v2)
Copy OK

Track 10

Filename F:\Larry Coryell - Seven Secrets (2016) [FLAC]\10 - Mudhen Blues.wav

Peak level 98.9 %
Extraction speed 5.3 X
Track quality 100.0 %
Test CRC 1A8274BD
Copy CRC 1A8274BD
Cannot be verified as accurate (confidence 9) [B3712F4C], AccurateRip returned [2C8B90C2] (AR v2)
Copy OK

Track 11

Filename F:\Larry Coryell - Seven Secrets (2016) [FLAC]\11 - Zodiac.wav

Peak level 98.6 %
Extraction speed 5.4 X
Track quality 100.0 %
Test CRC B509A787
Copy CRC B509A787
Cannot be verified as accurate (confidence 8) [4F32934D], AccurateRip returned [64DBECD5] (AR v2)
Copy OK


No tracks could be verified as accurate
You may have a different pressing from the one(s) in the database

No errors occurred

End of status report

–– CUETools DB Plugin V2.1.6

[CTDB TOCID: EoqZxrSxt.je0fAQ.cox_1bhyTA-] found
Submit result: EoqZxrSxt.je0fAQ.cox_1bhyTA- has been confirmed
Track | CTDB Status
1 | (20/20) Accurately ripped
2 | (20/20) Accurately ripped
3 | (20/20) Accurately ripped
4 | (20/20) Accurately ripped
5 | (20/20) Accurately ripped
6 | (20/20) Accurately ripped
7 | (20/20) Accurately ripped
8 | (20/20) Accurately ripped
9 | (20/20) Accurately ripped
10 | (20/20) Accurately ripped
11 | (20/20) Accurately ripped


==== Log checksum 14E03EC89EC8602C051B55EBFC6124D9D339AE6509033E8CFD329A1EA9397BA1 ====


––––––––––––––––––––––––––––––––––––––––
Analyzed: Larry Coryell / Seven Secrets
––––––––––––––––––––––––––––––––––––––––

DR Peak RMS Duration Track
––––––––––––––––––––––––––––––––––––––––
DR7 -0.10 dB -8.53 dB 5:00 01-Alabama Rhap Corollary
DR6 -0.10 dB -7.04 dB 5:01 02-Mr. Miyake
DR6 -0.10 dB -7.50 dB 8:04 03-Dragon's Way
DR7 -0.10 dB -8.58 dB 5:07 04-Philly Flash
DR9 -2.10 dB -14.73 dB 5:16 05-Molten Grace
DR7 -0.10 dB -8.51 dB 6:45 06-Seven Secrets
DR8 -0.10 dB -9.09 dB 5:12 07-The Dip
DR9 -0.10 dB -9.86 dB 6:43 08-Having Second Thoughts
DR9 -0.10 dB -9.94 dB 5:59 09-Some Funky Stuff
DR8 -0.10 dB -9.08 dB 5:48 10-Mudhen Blues
DR7 -0.12 dB -8.41 dB 4:58 11-Zodiac
––––––––––––––––––––––––––––––––––––––––

Number of tracks: 11
Official DR value: DR8

Samplerate: 44100 Hz
Channels: 2
Bits per sample: 16
Bitrate: 1052 kbps
Codec: FLAC
================================================================================

Larry Coryell - Seven Secrets (2016) {Savoy Jazz}
Larry Coryell - Seven Secrets (2016) {Savoy Jazz}
Larry Coryell - Seven Secrets (2016) {Savoy Jazz}