Subcategories

Latin Quarter - Bringing Rosa Home (1997)

Posted By: popsakov
Latin Quarter - Bringing Rosa Home (1997)

Latin Quarter - Bringing Rosa Home (1997)
EAC Rip | FLAC (Img) + Cue + Log ~ 355 Mb | MP3 CBR320 ~ 123 Mb
Full Scans (JPG, 600 dpi) ~ 83 Mb | RAR 5% Recovery
Pop Rock, Alternative/Indie Rock | SPV Recordings #CD-085-44742

Where does one begin to praise this CD? The bitter-sweet lyrics, the brilliant intertwining of piano and guitar, the perfect vocal harmonies, the atmospheric texture, the magic of the melodies? "Bringing Rosa Home" is the sixth and strongest CD so far from the English band Latin Quarter. The richness of ideas of joint band- leaders Steve Skaith and Richard Wright is overwhelming, their musical taste undeniable. The twelve pop-songs on their new CD sound smooth and effortless almost as a matter of course. Like all really first-class things. ~ Brigitte Magazine, 6/97, German

Politics have been at the heart of Latin Quarter's music since the band's inception. Latin Quarter was formed in 1983 by Mike Jones (lyrics), Steve Skaith (vocals, guitar), and Richard Wright (guitar). Jones and Skaith began writing socially conscious songs as members of the political organization Big Fire. In December, 1983, Yona Dunsford (vocals, keyboard) and Carol Douet (vocals) were added to the lineup; nearly a year later, Greg Harewood (bass), Richard Stevens (drums), and Steve Jeffries (keyboard) joined the band and Latin Quarter's mix of folk, reggae, rock, and new wave started to evolve. The group released its first album, Modern Times, in 1985. The track "Radio Africa" became Latin Quarter's most successful song, hitting the U.K. charts three times in a two-year span. However, Latin Quarter's deeply political lyrics frightened U.K. radio programmers; although tracks like the anti-Apartheid protest "No Rope As Long As Time" attracted college radio DJs in the U.S., most of Latin Quarter's singles were limited to scant evening airplay in the U.K In 1987, Stevens and Jeffries were replaced by Martin Lascalles (keyboards) and Darren Abraham (drums) as the band recorded its second album, Mick and Caroline. Unable to find a record company that truly cared about their music, Latin Quarter broke up in 1990. In 1991, however, the Bhundu Boys remixed "Radio Africa," reviving interest in Latin Quarter. Latin Quarter reunited in 1993 for the album Long Pig, following it with Bringing Rosa Home in 1997.
~ Michael Sutton, All Music

***************

Latin Quarter - Bringing Rosa Home (1997)

Latin Quarter - Bringing Rosa Home (1997)

Track List:

01. Surprised [4:03]
02. The Spearcarrier [4:09]
03. Love Ain't What You Get [3:36]
04. Come Down And Buy [5:08]
05. Angel [5:00]
06. Smoking Gun [3:38]
07. Bride On The Bridge [4:14]
08. Branded [3:59]
09. Older [4:31]
10. Help Is On Its Way [4:00]
11. Bringing Rosa Home [3:53]
12. Ocean Head [5:13]

Personnel:
Mike Jones - Lyrics
Steve Skaith - Vocals, guitar
Richard Wright - Guitar, keyboards

Additional Musicians:
Blair Cunningham - Drums
Martin Ditcham - Percussion also Drums on "Bridge On The Bridge"
Nikki Rackin - Backing Vocals on "Surprised", "Older" and "Help Is On Its Way"
John McKenzie - Bass
Carol Issacs - Piano, organ, accordian, backing vocals
Calum MacColl - Dulcimer, Backing vocals
Claudia Figueroa - Backing vocals on "Bridge On The Bridge"
Liam Bradley - Backing vocals on "Branded"
Siobhan Culhane - Whistle on "Older"

Exact Audio Copy V0.99 prebeta 5 from 4. May 2009

Отчёт EAC об извлечении, выполненном 20. октября 2011, 20:22

Latin Quarter / Bringing Rosa Home

Дисковод: PLEXTOR BD-R PX-LB950SA Adapter: 1 ID: 1

Режим чтения : Достоверность
Использование точного потока : Да
Отключение кэша аудио : Да
Использование указателей C2 : Нет

Коррекция смещения при чтении : 6
Способность читать области Lead-in и Lead-out : Нет
Заполнение пропущенных сэмплов тишиной : Да
Удаление блоков с тишиной в начале и конце : Нет
При вычислениях CRC использовались нулевые сэмплы : Да
Интерфейс : Встроенный Win32-интерфейс для Win NT/2000

Выходной формат : Пользовательский кодировщик
Выбранный битрейт : 1024 kBit/s
Качество : Высокий
Добавление ID3-тэга : Нет
Утилита сжатия : H:\Program Files\Exact Audio Copy\FLAC\FLAC.EXE
Дополнительные параметры : -6 -V -T "ARTIST=%a" -T "TITLE=%t" -T "ALBUM=%g" -T "DATE=%y" -T "TRACKNUMBER=%n" -T "GENRE=%m" -T "COMMENT=%e" %s -o %d


TOC извлечённого CD

Трек | Старт | Длительность | Начальный сектор | Конечный сектор
––––––––––––––––––––––––––––––––––-
1 | 0:00.30 | 4:03.36 | 30 | 18290
2 | 4:03.66 | 4:09.10 | 18291 | 36975
3 | 8:13.01 | 3:36.18 | 36976 | 53193
4 | 11:49.19 | 5:08.16 | 53194 | 76309
5 | 16:57.35 | 4:59.65 | 76310 | 98799
6 | 21:57.25 | 3:38.37 | 98800 | 115186
7 | 25:35.62 | 4:14.01 | 115187 | 134237
8 | 29:49.63 | 3:58.52 | 134238 | 152139
9 | 33:48.40 | 4:31.35 | 152140 | 172499
10 | 38:20.00 | 4:00.06 | 172500 | 190505
11 | 42:20.06 | 3:52.72 | 190506 | 207977
12 | 46:13.03 | 5:12.38 | 207978 | 231415


Характеристики диапазона извлечения и сообщения об ошибках

Выбранный диапазон

Имя файла L:\Audio Lossless\Latin Quarter. 1997 Bringing Rosa Home\Latin Quarter - Bringing Rosa Home.wav

Пиковый уровень 99.6 %
Качество диапазона 99.9 %
CRC теста 560FC06F
CRC копии 560FC06F
Копирование… OK

Ошибок не произошло


AccurateRip: сводка

Трек 1 точное извлечение (доверие 29) [884E48E3]
Трек 2 точное извлечение (доверие 28) [381533D3]
Трек 3 точное извлечение (доверие 28) [FB9F5E19]
Трек 4 точное извлечение (доверие 29) [4905FA3F]
Трек 5 точное извлечение (доверие 28) [49DF60B6]
Трек 6 точное извлечение (доверие 28) [A10AABD7]
Трек 7 точное извлечение (доверие 28) [A66A5BB9]
Трек 8 точное извлечение (доверие 28) [2258074D]
Трек 9 точное извлечение (доверие 28) [5E5DDBE2]
Трек 10 точное извлечение (доверие 28) [A80C544C]
Трек 11 точное извлечение (доверие 28) [5408128C]
Трек 12 точное извлечение (доверие 29) [74F96920]

Все треки извлечены точно

Конец отчёта

foobar2000 1.2.6 / Dynamic Range Meter 1.1.1
log date: 2017-07-25 09:47:50

––––––––––––––––––––––––––––––––––––––––
Analyzed: Latin Quarter / Bringing Rosa Home
––––––––––––––––––––––––––––––––––––––––

DR Peak RMS Duration Track
––––––––––––––––––––––––––––––––––––––––
DR8 -0.04 dB -9.92 dB 4:03 01-Surprised
DR9 -0.03 dB -10.90 dB 4:09 02-The Spearcarrier
DR8 -0.04 dB -10.11 dB 3:36 03-Love Ain't What You Get
DR9 -0.03 dB -10.77 dB 5:08 04-Come Down And Buy
DR8 -0.04 dB -10.53 dB 5:00 05-Angel
DR9 -0.03 dB -11.83 dB 3:38 06-Smoking Gun
DR8 -0.06 dB -10.28 dB 4:14 07-Bride On The Bridge
DR8 -0.06 dB -9.76 dB 3:59 08-Branded
DR8 -0.04 dB -9.30 dB 4:31 09-Older
DR8 -0.03 dB -9.47 dB 4:00 10-Help Is On Its Way
DR9 -0.06 dB -9.98 dB 3:53 11-Bringing Rosa Home
DR8 -0.06 dB -11.65 dB 5:13 12-Ocean Head
––––––––––––––––––––––––––––––––––––––––

Number of tracks: 12
Official DR value: DR8

Samplerate: 44100 Hz
Channels: 2
Bits per sample: 16
Bitrate: 919 kbps
Codec: FLAC
================================================================================

[CUETools log; Date: 25.07.2017 9:47:38; Version: 2.1.5]
Pregap length 00:00:30.
[CTDB TOCID: XkR4_IGapEjlg7O1vJscUz8YLfw-] found.
Track | CTDB Status
1 | (29/31) Accurately ripped
2 | (29/31) Accurately ripped
3 | (29/31) Accurately ripped
4 | (29/31) Accurately ripped
5 | (29/31) Accurately ripped
6 | (29/31) Accurately ripped
7 | (29/31) Accurately ripped
8 | (29/31) Accurately ripped
9 | (29/31) Accurately ripped
10 | (29/31) Accurately ripped
11 | (29/31) Accurately ripped
12 | (30/31) Accurately ripped
[AccurateRip ID: 0016b2ce-00d43b71-910c0d0c] found.
Track [ CRC | V2 ] Status
01 [884e48e3|937f99a0] (31+32/78) Accurately ripped
02 [381533d3|0fca85e2] (31+33/79) Accurately ripped
03 [fb9f5e19|968f6311] (31+33/79) Accurately ripped
04 [4905fa3f|d3638b27] (32+33/80) Accurately ripped
05 [49df60b6|e9f0a11f] (31+33/79) Accurately ripped
06 [a10aabd7|7f34e360] (31+32/78) Accurately ripped
07 [a66a5bb9|4e5c2e49] (30+32/77) Accurately ripped
08 [2258074d|a9e33948] (31+32/78) Accurately ripped
09 [5e5ddbe2|4e16fd0a] (31+33/79) Accurately ripped
10 [a80c544c|46316d68] (31+34/80) Accurately ripped
11 [5408128c|28884af3] (31+32/78) Accurately ripped
12 [74f96920|e2c5441e] (32+33/80) Accurately ripped
Offsetted by -679:
01 [b0a8e782] (03/78) Accurately ripped
02 [1c57e532] (03/79) Accurately ripped
03 [f64c7255] (03/79) Accurately ripped
04 [41f1772d] (03/80) Accurately ripped
05 [331ce3a0] (03/79) Accurately ripped
06 [7fbd80f1] (03/78) Accurately ripped
07 [5d594da7] (03/77) Accurately ripped
08 [873f845f] (03/78) Accurately ripped
09 [aaf0ba3c] (03/79) Accurately ripped
10 [e14096c5] (03/80) Accurately ripped
11 [3a9cfe87] (03/78) Accurately ripped
12 [f4d0367c] (03/80) Accurately ripped
Offsetted by -669:
01 [ab88fe94] (04/78) Accurately ripped
02 [d74a10e9] (04/79) Accurately ripped
03 [4aa6fbf4] (04/79) Accurately ripped
04 [fee7ee71] (04/80) Accurately ripped
05 [434a979f] (04/79) Accurately ripped
06 [f20b71ab] (04/78) Accurately ripped
07 [cca0937d] (04/77) Accurately ripped
08 [ab3bf1ab] (04/78) Accurately ripped
09 [364ffbcd] (04/79) Accurately ripped
10 [fbf81da3] (04/80) Accurately ripped
11 [a55f4d34] (04/78) Accurately ripped
12 [204c335d] (04/80) Accurately ripped

Track Peak [ CRC32 ] [W/O NULL] [ LOG ]
– 99,6 [560FC06F] [0D11256F] CRC32
01 99,5 [92A28282] [D65E7DBF]
02 99,6 [A993B9B2] [78D7F7C5]
03 99,5 [CA1CACCC] [719B7F6F]
04 99,6 [E72DFCF3] [5A35B36B]
05 99,5 [51375B35] [C5125782]
06 99,6 [17F8CDD7] [9509FF01]
07 99,3 [3CC23EB6] [6E97E01B]
08 99,3 [FE90DB70] [AA64032F]
09 99,5 [5F29BCA2] [CA56DBC4]
10 99,6 [D8BF4FE9] [CBC1D356]
11 99,3 [E99CD29A] [21CCFBEB]
12 99,3 [578351B5] [143F3F5A]

Latin Quarter - Bringing Rosa Home (1997)

All thanks go to Mawrix

>>> Latin Quarter in my Blog <<<

Download from icerbox.com: