Subcategories

Latin Quarter - Ocean Head (2012)

Posted By: popsakov
Latin Quarter - Ocean Head (2012)

Latin Quarter - Ocean Head (2012)
EAC Rip | FLAC (Img) + Cue + Log ~ 260 Mb | MP3 CBR320 ~ 102 Mb
Full Scans (JPG, 600 dpi) ~ 171 Mb | RAR 5% Recovery
Soft Rock, Pop, Acoustic | Westpark Music #CD 87221

Latin Quarter first burst onto the scene with their singles "Radio Africa" and "New Millionaires" - songs that stayed for months in the German single charts in the 80s, with the album "Modern Times" selling more than 300.000 copies worldwide. The band then went on to make 5 more albums before splitting up in 1998. However, in 2011 five of the original band members are back together with a new acoustic-pop album, entitled "Ocean Head". The album, was released in Europe on February 17, 2012, contains 10 new and 1 older song, and combines the political and the personal themes for which Latin Quarter have always been renowned.

***************

Latin Quarter - Ocean Head (2012)

Latin Quarter - Ocean Head (2012)

Track List:

01. No Man's Land [4:32]
02. Legalise It (The Making Of Al Capone) [3:59]
03. Miss Teen USA [3:40]
04. Even Superman (Is Dead) [3:26]
05. Unwind [3:32]
06. Walking on the Wing [3:52]
07. If I Believed in God [4:31]
08. Love Can Sometimes Fall [4:26]
09. The Last Flight of Dag Hammarskjold [3:09]
10. Another Night's Broken Glass [3:23]
11. Ocean Head [4:05]

Personnel:
Yona Dunsford – vocals
Steve Jeffries – keyboards
Greg Harewood – bass
Steve Skaith – vocals, guitar
Mike Jones – lyrics

Additional Musicians:
Dan See - Drums
Bob Jenkins - Drums on 'Love Can Sometimes Fail', 'Ocean Head' and 'Another Night's Broken Glass'
Ralph Salmins - Drums on 'The Last Flight of Dag Hammarskjold'
Laura McWilliam - Violin on 'Walking on the Wind'
Lenny Zakatek, Mary Carewe, Emily Carewe-Jeffries and Becky Carewe-Jeffries - Additional Backing Vocals

Exact Audio Copy V1.0 beta 3 from 29. August 2011

Отчёт EAC об извлечении, выполненном 10. мая 2012, 23:01

Latin Quarter / Ocean Head

Дисковод: PIONEER BD-RW BDR-206D Adapter: 1 ID: 1

Режим чтения : Достоверность
Использование точного потока : Да
Отключение кэша аудио : Да
Использование указателей C2 : Нет

Коррекция смещения при чтении : 667
Способность читать области Lead-in и Lead-out : Нет
Заполнение пропущенных сэмплов тишиной : Да
Удаление блоков с тишиной в начале и конце : Нет
При вычислениях CRC использовались нулевые сэмплы : Да
Интерфейс : Встроенный Win32-интерфейс для Win NT/2000

Выходной формат : Пользовательский кодировщик
Выбранный битрейт : 1024 kBit/s
Качество : Высокий
Добавление ID3-тега : Нет
Утилита сжатия : H:\Program Files\Exact Audio Copy\FLAC\FLAC.EXE
Дополнительные параметры : -V -8 -T "Date=%year%" -T "Genre=%genre%" %source%


TOC извлечённого CD

Трек | Старт | Длительность | Начальный сектор | Конечный сектор
––––––––––––––––––––––––––––––––––-
1 | 0:00.00 | 4:32.07 | 0 | 20406
2 | 4:32.07 | 3:58.43 | 20407 | 38299
3 | 8:30.50 | 3:39.49 | 38300 | 54773
4 | 12:10.24 | 3:26.07 | 54774 | 70230
5 | 15:36.31 | 3:31.60 | 70231 | 86115
6 | 19:08.16 | 3:51.38 | 86116 | 103478
7 | 22:59.54 | 4:31.08 | 103479 | 123811
8 | 27:30.62 | 4:25.65 | 123812 | 143751
9 | 31:56.52 | 3:08.43 | 143752 | 157894
10 | 35:05.20 | 3:23.36 | 157895 | 173155
11 | 38:28.56 | 4:05.09 | 173156 | 191539


Характеристики диапазона извлечения и сообщения об ошибках

Выбранный диапазон

Имя файла L:\Audio Lossless\Latin Quarter. 2012 Ocean Head\Latin Quarter - Ocean Head.wav

Пиковый уровень 92.8 %
Скорость извлечения 6.9 X
Качество диапазона 100.0 %
CRC теста EA7E5CB2
CRC копии EA7E5CB2
Копирование… OK

Ошибок не произошло


AccurateRip: сводка

Трек 1 отсутствует в базе данных
Трек 2 отсутствует в базе данных
Трек 3 отсутствует в базе данных
Трек 4 отсутствует в базе данных
Трек 5 отсутствует в базе данных
Трек 6 отсутствует в базе данных
Трек 7 отсутствует в базе данных
Трек 8 отсутствует в базе данных
Трек 9 отсутствует в базе данных
Трек 10 отсутствует в базе данных
Трек 11 отсутствует в базе данных

Ни одного трека нет в базе AccurateRip

Конец отчёта

==== Контрольная сумма отчёта A70D40FAE4D45C9DB7311485D0B97CF502347641F7FB01DAE80F5130E5F8ED39 ====

foobar2000 1.2.6 / Dynamic Range Meter 1.1.1
log date: 2017-07-11 14:11:54

––––––––––––––––––––––––––––––––––––––––
Analyzed: Latin Quarter / Ocean Head
––––––––––––––––––––––––––––––––––––––––

DR Peak RMS Duration Track
––––––––––––––––––––––––––––––––––––––––
DR12 -1.13 dB -15.34 dB 4:32 01-No Man's Land
DR13 -1.22 dB -17.18 dB 3:59 02-Legalise It (The Making Of Al Capone)
DR10 -2.99 dB -14.59 dB 3:40 03-Miss Teen USA
DR11 -1.55 dB -15.30 dB 3:26 04-Even Superman (Is Dead)
DR9 -1.96 dB -13.42 dB 3:32 05-Unwind
DR11 -0.65 dB -15.23 dB 3:52 06-Walking on the Wing
DR12 -1.67 dB -17.89 dB 4:31 07-If I Believed in God
DR11 -1.75 dB -15.64 dB 4:26 08-Love Can Sometimes Fall
DR11 -1.79 dB -15.55 dB 3:09 09-The Last Flight of Dag Hammarskjold
DR11 -1.80 dB -16.34 dB 3:23 10-Another Night's Broken Glass
DR9 -1.94 dB -13.04 dB 4:05 11-Ocean Head
––––––––––––––––––––––––––––––––––––––––

Number of tracks: 11
Official DR value: DR11

Samplerate: 44100 Hz
Channels: 2
Bits per sample: 16
Bitrate: 814 kbps
Codec: FLAC
================================================================================

[CUETools log; Date: 11.07.2017 14:12:06; Version: 2.1.5]
[CTDB TOCID: Iy6vyxP2YG5zHg18hQ1.skEVOy4-] found.
Track | CTDB Status
1 | (27/27) Accurately ripped
2 | (27/27) Accurately ripped
3 | (27/27) Accurately ripped
4 | (27/27) Accurately ripped
5 | (27/27) Accurately ripped
6 | (27/27) Accurately ripped
7 | (27/27) Accurately ripped
8 | (27/27) Accurately ripped
9 | (27/27) Accurately ripped
10 | (27/27) Accurately ripped
11 | (27/27) Accurately ripped
[AccurateRip ID: 0011c0c6-00991911-7c09f90b] found.
Track [ CRC | V2 ] Status
01 [9bb2fe88|44d20a90] (02+10/12) Accurately ripped
02 [23e55e57|89bc7d25] (02+10/12) Accurately ripped
03 [d018b0e4|29492493] (02+10/12) Accurately ripped
04 [3af1f16e|3e02ad56] (02+10/12) Accurately ripped
05 [5367deb6|61ca71ff] (02+10/12) Accurately ripped
06 [749860dc|dbce76f8] (02+10/12) Accurately ripped
07 [3341fe79|d13ba52b] (02+10/12) Accurately ripped
08 [ded6b435|2794ec17] (02+10/12) Accurately ripped
09 [4461fbc6|364bc78b] (02+10/12) Accurately ripped
10 [5a1f2c14|2e5315db] (02+10/12) Accurately ripped
11 [038a1254|d022f572] (02+10/12) Accurately ripped

Track Peak [ CRC32 ] [W/O NULL] [ LOG ]
– 92,8 [EA7E5CB2] [C3C32456] CRC32
01 87,7 [FD83E167] [F773C209]
02 86,8 [25BAA92F] [12B9E72C]
03 70,8 [E12F948D] [9E769F33]
04 83,6 [8387098F] [9EF67631]
05 79,8 [B1C473D7] [119E2B70]
06 92,8 [F755ABD1] [463A84E2]
07 82,5 [45BA1BF7] [11FFDDB6]
08 81,7 [852E4139] [506F600C]
09 81,4 [7F575C2A] [1D0763FD]
10 81,3 [23D40EF8] [03377383]
11 80,0 [73518439] [E97EBB34]

Latin Quarter - Ocean Head (2012)

All thanks go to Mawrix

>>> Latin Quarter in my Blog <<<

Download from icerbox.com: