Latin Quarter - Tilt (2014)

Posted By: popsakov
Latin Quarter - Tilt (2014)

Latin Quarter - Tilt (2014)
EAC Rip | FLAC (Img) + Cue + Log ~ 249 Mb | Full Scans (JPG, 600 dpi) ~ 183 Mb | RAR 5% Recovery
Brit Pop, Pop Rock, Alternative Rock | Westpark Music #WP 87266

Latin Quarter first burst onto the scene with their singles "Radio Africa" and "New Millionaires" – songs that stayed for months in the German single charts in the 80s, with the album "Modern Times" selling more than 300.000 copies worldwide. After splitting up in 1998, five of the original musicians got together again in 2011. Unlike other bands they didn’t rely on previous fame but released an album with new songs, reflecting private and political life today. „Ocean Head“ was released in 2012, the follow up album „Tilt“ in 2014.

This album gained a lot of response and respect and led to the reunification of the band Latin Quarter. The revived band is still composing around ingenious lyrics, full of wit and critical comments on contempoarary politics combined but with equal emphasis on melody and rhythm. Latin Quarter are celebrating their 30th anniversary with this new album, new compositions and wonderful lyrics, mostly written by Mike Jones. For this album the band has been joined by drummer Martin Ditcham (Chris Rea, Sade). Special Guest on the "Tilt": Chris Rea on slide guitar, Richard Wright and Ed Hogston on electric guitar.

***************

Latin Quarter - Tilt (2014)

Latin Quarter - Tilt (2014)

Track List:

01. Nico [3:43]
02. 50 Grams [4:10]
03. Sometimes The Big Fish [4:03]
04. Tilt [3:24]
05. Marianne [4:15]
06. The Cat [3:56]
07. Once, Twice [3:49]
08. Fireflies [3:38]
09. Take It To Miriam [4:05]
10. One Stone, The Avalanche [3:34]

Personnel:
Greg Harewood - bass
Yona Dunsford - vocals
Steve Jeffries - keyboards, backing vocals, engineered, produced, mixed, mastered
Steve Skaith - guitar, vocals
Martin Ditcham - drums, percussion
Mike Jones - lyrics

Exact Audio Copy V1.0 beta 3 from 29. August 2011

EAC extraction logfile from 28. October 2014, 19:30

Latin Quarter / Tilt

Used drive : PIONEER BD-RW BDR-206D Adapter: 1 ID: 1

Read mode : Secure
Utilize accurate stream : Yes
Defeat audio cache : Yes
Make use of C2 pointers : No

Read offset correction : 667
Overread into Lead-In and Lead-Out : No
Fill up missing offset samples with silence : Yes
Delete leading and trailing silent blocks : No
Null samples used in CRC calculations : Yes
Used interface : Native Win32 interface for Win NT & 2000

Used output format : User Defined Encoder
Selected bitrate : 1024 kBit/s
Quality : High
Add ID3 tag : No
Command line compressor : H:\Program Files\Exact Audio Copy\FLAC\FLAC.EXE
Additional command line options : -V -8 -T "Date=%year%" -T "Genre=%genre%" %source%


TOC of the extracted CD

Track | Start | Length | Start sector | End sector
––––––––––––––––––––––––––––-
1 | 0:00.00 | 3:43.24 | 0 | 16748
2 | 3:43.24 | 4:09.63 | 16749 | 35486
3 | 7:53.12 | 4:03.00 | 35487 | 53711
4 | 11:56.12 | 3:24.33 | 53712 | 69044
5 | 15:20.45 | 4:15.20 | 69045 | 88189
6 | 19:35.65 | 3:56.23 | 88190 | 105912
7 | 23:32.13 | 3:48.45 | 105913 | 123057
8 | 27:20.58 | 3:37.45 | 123058 | 139377
9 | 30:58.28 | 4:04.39 | 139378 | 157716
10 | 35:02.67 | 3:34.34 | 157717 | 173800


Range status and errors

Selected range

Filename L:\Audio Lossless\Latin Quarter. 2014 Tilt\Latin Quarter - Tilt.wav

Peak level 95.3 %
Extraction speed 6.7 X
Range quality 100.0 %
Test CRC 15C17E05
Copy CRC 15C17E05
Copy OK

No errors occurred


AccurateRip summary

Track 1 accurately ripped (confidence 3) [F5417C24] (AR v2)
Track 2 accurately ripped (confidence 3) [4D2CD6BF] (AR v2)
Track 3 accurately ripped (confidence 3) [56A1E608] (AR v2)
Track 4 accurately ripped (confidence 3) [44E9C99C] (AR v2)
Track 5 accurately ripped (confidence 3) [6EB998FB] (AR v2)
Track 6 accurately ripped (confidence 3) [71272EDF] (AR v2)
Track 7 accurately ripped (confidence 3) [122C9311] (AR v2)
Track 8 accurately ripped (confidence 3) [CA740DE6] (AR v2)
Track 9 accurately ripped (confidence 3) [7D2FDBE5] (AR v2)
Track 10 accurately ripped (confidence 3) [97741494] (AR v2)

All tracks accurately ripped

End of status report

==== Log checksum D6DBF4151328071D9F3E1FB8A70B3FD76C56AA8D1D32239346C8CBC622F920AF ====

foobar2000 1.2.6 / Dynamic Range Meter 1.1.1
log date: 2017-08-02 13:12:23

––––––––––––––––––––––––––––––––––––––––
Analyzed: Latin Quarter / Tilt
––––––––––––––––––––––––––––––––––––––––

DR Peak RMS Duration Track
––––––––––––––––––––––––––––––––––––––––
DR7 -0.56 dB -8.40 dB 3:43 01-Nico
DR8 -0.53 dB -10.17 dB 4:10 02-50 Grams
DR9 -0.56 dB -12.21 dB 4:03 03-Sometimes The Big Fish
DR7 -0.82 dB -12.01 dB 3:24 04-Tilt
DR9 -0.63 dB -12.01 dB 4:15 05-Marianne
DR7 -0.56 dB -10.52 dB 3:56 06-The Cat
DR8 -0.82 dB -10.38 dB 3:49 07-Once, Twice
DR8 -0.41 dB -9.70 dB 3:38 08-Fireflies
DR7 -0.73 dB -9.62 dB 4:05 09-Take It To Miriam
DR8 -1.33 dB -13.53 dB 3:34 10-One Stone, The Avalanche
––––––––––––––––––––––––––––––––––––––––

Number of tracks: 10
Official DR value: DR8

Samplerate: 44100 Hz
Channels: 2
Bits per sample: 16
Bitrate: 859 kbps
Codec: FLAC
================================================================================

[CUETools log; Date: 02.08.2017 13:12:24; Version: 2.1.5]
[CTDB TOCID: fwrmDzYD05NSLha4ebvku_W5nME-] found.
Track | CTDB Status
1 | (28/28) Accurately ripped
2 | (28/28) Accurately ripped
3 | (28/28) Accurately ripped
4 | (27/28) Accurately ripped
5 | (27/28) Accurately ripped
6 | (28/28) Accurately ripped
7 | (28/28) Accurately ripped
8 | (28/28) Accurately ripped
9 | (28/28) Accurately ripped
10 | (28/28) Accurately ripped
[AccurateRip ID: 000eb1ea-007577eb-75090d0a] found.
Track [ CRC | V2 ] Status
01 [adc2d078|f5417c24] (00+11/11) Accurately ripped
02 [8501253f|4d2cd6bf] (00+11/11) Accurately ripped
03 [7ecd36b3|56a1e608] (00+11/11) Accurately ripped
04 [653ef0f9|44e9c99c] (00+11/11) Accurately ripped
05 [a316f851|6eb998fb] (00+11/11) Accurately ripped
06 [ccc99883|71272edf] (00+11/11) Accurately ripped
07 [423bdacb|122c9311] (00+11/11) Accurately ripped
08 [2b436c93|ca740de6] (00+11/11) Accurately ripped
09 [c607c061|7d2fdbe5] (00+11/11) Accurately ripped
10 [558c328a|97741494] (00+11/11) Accurately ripped

Track Peak [ CRC32 ] [W/O NULL] [ LOG ]
– 95,3 [15C17E05] [209C58BE] CRC32
01 93,7 [7F16E462] [8D70953C]
02 94,0 [5D0E1287] [F225BA40]
03 93,7 [22A58083] [6232FF8A]
04 91,0 [CE56B866] [2D35FEF4]
05 92,9 [A8866D31] [983C06CC]
06 93,7 [C628559C] [12174535]
07 90,9 [AEFB995B] [F78A528C]
08 95,3 [70D71E5E] [71F41AAE]
09 91,8 [B7CD98BB] [63C37016]
10 85,7 [43240C43] [976DD279]

Latin Quarter - Tilt (2014)

All thanks go to Mawrix

>>> Latin Quarter in my Blog <<<

Download from icerbox.com: