Subcategories

Laurence Jones - What's It Gonna Be (2015)

Posted By: popsakov
Laurence Jones - What's It Gonna Be (2015)

Laurence Jones - What's It Gonna Be (2015)
EAC Rip | FLAC (Img) + Cue + Log ~ 417 Mb | MP3 CBR320 ~ 148 Mb
Scans Included (JPG, 600 dpi) | RAR 5% Recovery
Blues Rock | Ruf Records #RUF 1216

All or nothing. For Laurence Jones, it's an easy choice. In recent times, the hotshot British bandleader has barely stopped for breath. There's been the release of 2014's all-conquering second album, Temptation. The triumphant Blues Caravan tour that saw him raise roofs across Europe. The auspicious nod to represent his country at this year's European Blues Challenge, and the prospect if his performance at the Albert Hall for Lead Belly Fest in June. At this juncture, a less passionate artist might cool their heels and count their royalties. No chance. Saviour of the British blues scene is not a position for part-timers, and in 2015, Laurence is back with his stunning third album, What's It Gonna Be. Now there's a question. If you've followed the 23-year-old's journey so far, from his roots as the hottest guitar gunslinger in Stratford-upon-Avon, through his 2012 breakout with Thunder In The Sky, to his rise with Ruf Records, you might have an inkling of the qualities that will be found on this third album. There's gonna be white-hot fretwork. Vocals with power and soul. Songwriting that grabs you by the collar. Released in 2015 on Ruf Records, What's It Gonna Be gives you all of the above. But it gives you more, too, pushing the bandleader's talent further than ever before. The album sessions might have gone down at the Headline Music Studios in Cambridge, but as a career-long road-warrior whose songwriting antenna is always up, Laurence was channelling inspiration from across the planet when he started tracking in January 2015. "Last year," he explains of the album's backstory, "I had the experience of touring around Europe with the Ruf Records Blues Caravan. I got to explore ten different countries and I enjoyed conversations, laughter, smiles and tears with some wonderful people. This album is a collection of emotions and memories from that time. Just as Laurence's tour schedule winds all over, so the light-footed tracklisting of What's It Gonna Be keeps listeners on their toes, offering tough blues-rock to delight the hardcore fans who were onboard from the first riff of Thunder In The Sky, and enough curveballs to justify the words of the Classic Rock Blues Mag, who raved over "the one-time golden boy's coming-of-age". Label boss Thomas Ruf once cited Laurence's rare status as an 'AAA' artist ("which means 'A' guitarist, 'A' singer and 'A' songwriter"), and there's plenty of evidence of all three attributes on What's It Gonna Be. On standout cuts like Don't Need No Reason, Touch Your Moonlight and All I Need, the bandleader's growing maturity as a songwriter is writ large. When he burns across the frets on the title track, you'll celebrate the birth of a new guitar-shop moment. Elsewhere, Evil's rollicking blues-with-attitude confirms his power as a lyricist and owner of a voicebox beyond his years. "I didn't want to write about the same old boy-girl relationships," Laurence notes, "because a lot of pop bands do that. I write stuff that people can really relate to." The road doesn't just provide inspiration. As a direct result of that frantic tour diary, Laurence's musical performances have never been sharper than on What's It Gonna Be, as he locks in with the core band of bassist/co-producer Roger Inniss, drummer Miri Miettinen, keys men Jools Grudgings and Lewis Stephens, and backing vocalist SJ Mortimer. Plus, get your autograph books out for a pair of VIP guest vocalists, in the form of New York belter and Ruf labelmate Dana Fuchs, who runs riot on a cover of "Can't Get Enough", and Sandi Thom, who brings chills and thrills to her duet with Laurence on Don't Look Back. The studio lineup might have changed since last year's Temptation, but there's no doubt that it works. "It's got a lot to do with feeling," says Laurence of the band's dynamic chemistry at Headline. "If you listen to bands like the Rolling Stones, their music just seems timeless. It seems like they could have done it yesterday." Right now, it's 2015, and the third album from Laurence Jones has arrived. It's gonna be a talking-point. It's gonna be a smash-hit. It's gonna be the release that pushes the young bluesman ahead of the gunslinger pack and into the orbit of the songwriting greats. Looks like he won't be stopping for breath any time soon…

***************

Laurence Jones - What's It Gonna Be (2015)

Track List:

01. What's It Gonna Be [04:17]
02. Don't Need No Reason [04:23]
03. Evil [05:42]
04. Touch Your Moonlight [03:40]
05. Don't Look Back (feat. Sandi Thom) [04:50]
06. All I Need [05:29]
07. Being Alone [03:59]
08. Good Morning Blues [05:30]
09. Can't Get Enough (feat. Dana Fuchs) [04:17]
10. Set It Free [05:42]
11. Stop Moving The House [04:31]

Exact Audio Copy V1.0 beta 4 from 7. December 2014

EAC extraction logfile from 5. May 2015, 21:52

Laurence Jones / What's It Gonna Be (2015, RUF 1216)

Used drive : ATAPI iHAS124 B Adapter: 1 ID: 0

Read mode : Secure
Utilize accurate stream : Yes
Defeat audio cache : Yes
Make use of C2 pointers : No

Read offset correction : 6
Overread into Lead-In and Lead-Out : No
Fill up missing offset samples with silence : Yes
Delete leading and trailing silent blocks : No
Null samples used in CRC calculations : Yes
Used interface : Installed external ASPI interface

Used output format : User Defined Encoder
Selected bitrate : 128 kBit/s
Quality : High
Add ID3 tag : Yes
Command line compressor : C:\Program Files (x86)\Exact Audio Copy\Flac\flac.exe
Additional command line options : -V -8 -T "Date=%year%" -T "Genre=%genre%" %source%


TOC of the extracted CD

Track | Start | Length | Start sector | End sector
––––––––––––––––––––––––––––-
1 | 0:00.00 | 4:16.55 | 0 | 19254
2 | 4:16.55 | 4:22.34 | 19255 | 38938
3 | 8:39.14 | 5:41.02 | 38939 | 64515
4 | 14:20.16 | 3:39.14 | 64516 | 80954
5 | 17:59.30 | 4:49.05 | 80955 | 102634
6 | 22:48.35 | 5:28.36 | 102635 | 127270
7 | 28:16.71 | 3:58.14 | 127271 | 145134
8 | 32:15.10 | 5:29.35 | 145135 | 169844
9 | 37:44.45 | 4:16.66 | 169845 | 189110
10 | 42:01.36 | 5:41.04 | 189111 | 214689
11 | 47:42.40 | 4:30.70 | 214690 | 235009


Range status and errors

Selected range

Filename G:\CD\Laurence Jones - What's It Gonna Be.wav

Peak level 100.0 %
Extraction speed 8.3 X
Range quality 100.0 %
Test CRC DC5A6249
Copy CRC DC5A6249
Copy OK

No errors occurred


AccurateRip summary

Track 1 not present in database
Track 2 not present in database
Track 3 not present in database
Track 4 not present in database
Track 5 not present in database
Track 6 not present in database
Track 7 not present in database
Track 8 not present in database
Track 9 not present in database
Track 10 not present in database
Track 11 not present in database

None of the tracks are present in the AccurateRip database

End of status report

–– CUETools DB Plugin V2.1.4

[CTDB TOCID: fry1rrHBJ.Y5MEXVxmil9jP.SCM-] found
Submit result: fry1rrHBJ.Y5MEXVxmil9jP.SCM- has been confirmed
Track | CTDB Status
1 | (2/2) Accurately ripped
2 | (2/2) Accurately ripped
3 | (2/2) Accurately ripped
4 | (2/2) Accurately ripped
5 | (2/2) Accurately ripped
6 | (2/2) Accurately ripped
7 | (2/2) Accurately ripped
8 | (2/2) Accurately ripped
9 | (2/2) Accurately ripped
10 | (2/2) Accurately ripped
11 | (2/2) Accurately ripped


==== Log checksum A8B7A82004E4E1DE7E0DD1B969B0803147750E0028DB3F5E2A480296CCB83562 ====

foobar2000 1.2.6 / Dynamic Range Meter 1.1.1
log date: 2015-05-06 02:24:59

––––––––––––––––––––––––––––––––––––––––
Analyzed: Laurence Jones / What's It Gonna Be (2015, RUF 1216)
––––––––––––––––––––––––––––––––––––––––

DR Peak RMS Duration Track
––––––––––––––––––––––––––––––––––––––––
DR8 0.00 dB -8.35 dB 4:17 01-What's It Gonna Be
DR7 0.00 dB -7.98 dB 4:22 02-Don't Need No Reason
DR7 0.00 dB -8.06 dB 5:41 03-Evil
DR7 0.00 dB -7.91 dB 3:39 04-Touch Your Moonlight
DR6 0.00 dB -7.66 dB 4:49 05-Don't Look Back (feat. Sandi Thom)
DR7 0.00 dB -8.01 dB 5:28 06-All I Need
DR7 0.00 dB -8.06 dB 3:58 07-Being Alone
DR8 0.00 dB -9.64 dB 5:29 08-Good Morning Blues
DR7 0.00 dB -8.55 dB 4:17 09-Can't Get Enough (feat. Dana Fuchs)
DR6 0.00 dB -7.24 dB 5:41 10-Set It Free
DR7 0.00 dB -7.84 dB 4:31 11-Stop Moving The House
––––––––––––––––––––––––––––––––––––––––

Number of tracks: 11
Official DR value: DR7

Samplerate: 44100 Hz
Channels: 2
Bits per sample: 16
Bitrate: 1003 kbps
Codec: FLAC
================================================================================

[CUETools log; Date: 06.05.2015 2:25:03; Version: 2.1.5]
[CTDB TOCID: fry1rrHBJ.Y5MEXVxmil9jP.SCM-] found.
Track | CTDB Status
1 | (3/3) Accurately ripped
2 | (3/3) Accurately ripped
3 | (3/3) Accurately ripped
4 | (3/3) Accurately ripped
5 | (3/3) Accurately ripped
6 | (3/3) Accurately ripped
7 | (3/3) Accurately ripped
8 | (3/3) Accurately ripped
9 | (3/3) Accurately ripped
10 | (3/3) Accurately ripped
11 | (3/3) Accurately ripped
[AccurateRip ID: 00152b62-00b87053-9a0c3d0b] disk not present in database.

Track Peak [ CRC32 ] [W/O NULL] [ LOG ]
– 100,0 [DC5A6249] [E063B6F9] CRC32
01 100,0 [CDE08AA0] [EE6D3699]
02 100,0 [F5FA11D8] [2CD9C45E]
03 100,0 [6DC61A2A] [73C44FF9]
04 100,0 [9809096A] [A13AF31F]
05 100,0 [6245D5C8] [B8DE3957]
06 100,0 [55EEB687] [DAFE3E47]
07 100,0 [E4825EA0] [86BAFB25]
08 100,0 [35DF6113] [C3DC7054]
09 100,0 [1AA8FE65] [375070ED]
10 100,0 [8823EBAE] [EA584E21]
11 100,0 [32359CF5] [5F1AB604]

Laurence Jones - What's It Gonna Be (2015)

All thanks go to gerrV

Visit my blog!

Download:
Uploadable: FLAC-part 1 | FLAC-part 2 | mp3