Laurent Martin - Charles-Valentin Alkan - Esquisses, Op.63 (2002)

Posted By: tirexiss
Laurent Martin - Charles-Valentin Alkan - Esquisses, Op.63 (2002)

Laurent Martin - Charles-Valentin Alkan - Esquisses, Op.63 (2002)
EAC | FLAC (image+.cue, log) | Covers Included | 74:29 | 233B
Genre: Classical | Label: Naxos | Catalog: 8.555496

If you'd like to access the full scope of Alkan's quirky style in bite-sized proportions rather than piling into the Concerto for Solo Piano, Les Quartre Ages, and other large-scale concoctions, here's a disc for you. Esquisses (Sketches) contains 49 piano miniatures, each lasting from 43 seconds to a little more than four minutes. Alkan apparently composed these over a 15-year span. He eventually partitioned the collection into four volumes, arranged according to key sequence. It's almost too easy to describe the music as slightly off-center replicas of Schumann, Chopin, Liszt, and Weber, with touches of the French clavicenists, but that's essentially what you hear. He even foreshadows Paul McCartney's "Michelle" by a century in the quasi-modal "Barcollete!"
Laurent Martin commands Alkan's idiom well, and his fingers toss off the composer's fastest flurries of notes (e.g. the Fantasie, No. 16) with next to no effort. However, Martin's artistry is severely compromised by strident, tinny sonics. I could somewhat tame the jangly quality of loud, pedaled repeated chords by futzing with my receiver's parametric equalizer, but that's akin to treating a tummy ache with a band-aid. In fairness, Naxos has significantly improved its techniques for recording piano music since this 1992 release, originally available on Marco Polo and now reissued at budget price. – Jed Distler

Laurent Martin - Charles-Valentin Alkan - Esquisses, Op.63 (2002)

Track List:

Charles-Valentin Alkan (1813-1888)
Esquisses, Op.63

01. La vision
02. Le staccatissimo
03. Le legatissimo
04. Les cloches
05. Les inities
06. Fuguette
07. Le frisson
08. Pseudo-Naivete
09. Confidence
10. Increpatio
11. Les soupirs
12. Barcarollette
13. Ressouvenir
14. Duetto
15. Tutti de Concerto dans le genre ancien
16. Fantaisie
17. Petit prelude a 3
18. Liedchen
19. Graces
20. Petit marche villageoise
21. Morturi te salutant
22. Innocenza
23. L'Homme aux sabots
24. Contredanse
25. La poursuite
26. Petit air
27. Rigaudon
28. Inflexibilite
29. Delire
30. Petit air dolent
31. Debut de quatuor
32. Minuettino
33. Fais Dodo
34. Odi profanum vulgus et arceo
35. Musique militaire
36. Toccatina
37. Scherzettino
38. Les bons souhaits
39. Heraclite et Democrite
40. Attendez-moi sous l'orme
41. Les enharmoniques
42. Petit air
43. Notturnino - Innamorato
44. Transports
45. Les diablotins
46. Le premier billet doux
47. Scherzetto
48. En songe
49. Laus Deo

Performers:
Laurent Martin, piano

Exact Audio Copy V1.1 from 23. June 2015

EAC extraction logfile from 5. July 2017, 22:28

Laurent Martin / Alkan - Esquisses, Op.63

Used drive : TSSTcorpCD/DVDW SH-S182M Adapter: 1 ID: 1

Read mode : Secure
Utilize accurate stream : Yes
Defeat audio cache : Yes
Make use of C2 pointers : No

Read offset correction : 6
Overread into Lead-In and Lead-Out : No
Fill up missing offset samples with silence : Yes
Delete leading and trailing silent blocks : No
Null samples used in CRC calculations : Yes
Used interface : Native Win32 interface for Win NT & 2000

Used output format : User Defined Encoder
Selected bitrate : 128 kBit/s
Quality : High
Add ID3 tag : No
Command line compressor : C:\Program Files (x86)\Exact Audio Copy\Flac\flac.exe
Additional command line options : -V -8 -T "Date=%year%" -T "Genre=%genre%" %source%


TOC of the extracted CD

Track | Start | Length | Start sector | End sector
––––––––––––––––––––––––––––-
1 | 0:00.00 | 3:02.37 | 0 | 13686
2 | 3:02.37 | 1:03.18 | 13687 | 18429
3 | 4:05.55 | 1:25.42 | 18430 | 24846
4 | 5:31.22 | 0:57.43 | 24847 | 29164
5 | 6:28.65 | 2:28.35 | 29165 | 40299
6 | 8:57.25 | 1:31.20 | 40300 | 47144
7 | 10:28.45 | 1:44.67 | 47145 | 55011
8 | 12:13.37 | 1:14.68 | 55012 | 60629
9 | 13:28.30 | 2:13.55 | 60630 | 70659
10 | 15:42.10 | 1:24.72 | 70660 | 77031
11 | 17:07.07 | 1:44.68 | 77032 | 84899
12 | 18:52.00 | 1:14.70 | 84900 | 90519
13 | 20:06.70 | 2:48.59 | 90520 | 103178
14 | 22:55.54 | 1:12.26 | 103179 | 108604
15 | 24:08.05 | 1:04.15 | 108605 | 113419
16 | 25:12.20 | 1:18.22 | 113420 | 119291
17 | 26:30.42 | 0:43.55 | 119292 | 122571
18 | 27:14.22 | 1:10.55 | 122572 | 127876
19 | 28:25.02 | 1:34.63 | 127877 | 134989
20 | 29:59.65 | 1:43.00 | 134990 | 142714
21 | 31:42.65 | 2:20.22 | 142715 | 153236
22 | 34:03.12 | 1:21.30 | 153237 | 159341
23 | 35:24.42 | 0:38.28 | 159342 | 162219
24 | 36:02.70 | 1:05.10 | 162220 | 167104
25 | 37:08.05 | 0:42.67 | 167105 | 170321
26 | 37:50.72 | 0:44.30 | 170322 | 173651
27 | 38:35.27 | 0:58.30 | 173652 | 178031
28 | 39:33.57 | 0:55.33 | 178032 | 182189
29 | 40:29.15 | 0:53.52 | 182190 | 186216
30 | 41:22.67 | 1:30.10 | 186217 | 192976
31 | 42:53.02 | 1:04.03 | 192977 | 197779
32 | 43:57.05 | 3:09.37 | 197780 | 211991
33 | 47:06.42 | 0:56.65 | 211992 | 216256
34 | 48:03.32 | 2:27.48 | 216257 | 227329
35 | 50:31.05 | 1:12.15 | 227330 | 232744
36 | 51:43.20 | 1:08.10 | 232745 | 237854
37 | 52:51.30 | 1:00.00 | 237855 | 242354
38 | 53:51.30 | 1:36.40 | 242355 | 249594
39 | 55:27.70 | 2:10.37 | 249595 | 259381
40 | 57:38.32 | 0:42.23 | 259382 | 262554
41 | 58:20.55 | 1:53.42 | 262555 | 271071
42 | 60:14.22 | 0:55.00 | 271072 | 275196
43 | 61:09.22 | 1:14.53 | 275197 | 280799
44 | 62:24.00 | 0:45.17 | 280800 | 284191
45 | 63:09.17 | 2:33.00 | 284192 | 295666
46 | 65:42.17 | 1:02.00 | 295667 | 300316
47 | 66:44.17 | 2:05.65 | 300317 | 309756
48 | 68:50.07 | 1:21.53 | 309757 | 315884
49 | 70:11.60 | 4:17.15 | 315885 | 335174


Range status and errors

Selected range

Filename C:\temp\Alkan - Esquisses - Martin\Alkan - Esquisses.wav

Peak level 94.6 %
Extraction speed 7.9 X
Range quality 100.0 %
Test CRC 54B952E8
Copy CRC 54B952E8
Copy OK

No errors occurred


AccurateRip summary

Track 1 cannot be verified as accurate (confidence 7) [79B5243A], AccurateRip returned [06DC8D7A] (AR v2)
Track 2 cannot be verified as accurate (confidence 7) [04535EA5], AccurateRip returned [2C2974D8] (AR v2)
Track 3 cannot be verified as accurate (confidence 7) [3A397C69], AccurateRip returned [E45D5079] (AR v2)
Track 4 cannot be verified as accurate (confidence 7) [752CF1F7], AccurateRip returned [B8D411BC] (AR v2)
Track 5 cannot be verified as accurate (confidence 7) [B28BC747], AccurateRip returned [04387798] (AR v2)
Track 6 cannot be verified as accurate (confidence 6) [763AA589], AccurateRip returned [62587FA8] (AR v2)
Track 7 cannot be verified as accurate (confidence 7) [4B3B6993], AccurateRip returned [69509D49] (AR v2)
Track 8 cannot be verified as accurate (confidence 7) [2CF51351], AccurateRip returned [0493D14A] (AR v2)
Track 9 cannot be verified as accurate (confidence 7) [99F4474E], AccurateRip returned [FD4C0392] (AR v2)
Track 10 cannot be verified as accurate (confidence 6) [595AD1F6], AccurateRip returned [50D7EBC4] (AR v2)
Track 11 cannot be verified as accurate (confidence 6) [6E793A08], AccurateRip returned [2073DBDE] (AR v2)
Track 12 cannot be verified as accurate (confidence 7) [9B955C7F], AccurateRip returned [F0C0C36F] (AR v2)
Track 13 cannot be verified as accurate (confidence 7) [152F2B83], AccurateRip returned [CA47A84F] (AR v2)
Track 14 cannot be verified as accurate (confidence 6) [51ECDD2F], AccurateRip returned [EAFDF57D] (AR v2)
Track 15 cannot be verified as accurate (confidence 7) [CD725E6C], AccurateRip returned [146480C1] (AR v2)
Track 16 cannot be verified as accurate (confidence 7) [4D406EB0], AccurateRip returned [B451F93A] (AR v2)
Track 17 cannot be verified as accurate (confidence 7) [E2FB5AE9], AccurateRip returned [4F6E32DC] (AR v2)
Track 18 cannot be verified as accurate (confidence 7) [0BA86DAA], AccurateRip returned [FA86656C] (AR v2)
Track 19 cannot be verified as accurate (confidence 7) [5949C16A], AccurateRip returned [4DDA714F] (AR v2)
Track 20 cannot be verified as accurate (confidence 7) [1445DF8E], AccurateRip returned [BB84F14F] (AR v2)
Track 21 cannot be verified as accurate (confidence 7) [EAB05788], AccurateRip returned [55E48A68] (AR v2)
Track 22 cannot be verified as accurate (confidence 7) [603931AD], AccurateRip returned [94818AE1] (AR v2)
Track 23 cannot be verified as accurate (confidence 7) [8563F00E], AccurateRip returned [C4495291] (AR v2)
Track 24 cannot be verified as accurate (confidence 7) [FA7141EE], AccurateRip returned [3CA9D429] (AR v2)
Track 25 cannot be verified as accurate (confidence 7) [EA0F2932], AccurateRip returned [7F1E312F] (AR v2)
Track 26 cannot be verified as accurate (confidence 7) [5EE54B98], AccurateRip returned [61A3772F] (AR v2)
Track 27 cannot be verified as accurate (confidence 6) [CD775AFD], AccurateRip returned [5A4E0B89] (AR v2)
Track 28 cannot be verified as accurate (confidence 7) [D94400C0], AccurateRip returned [DA447B91] (AR v2)
Track 29 cannot be verified as accurate (confidence 7) [42C0E725], AccurateRip returned [F3FF26C2] (AR v2)
Track 30 cannot be verified as accurate (confidence 7) [8A5910BD], AccurateRip returned [419B6815] (AR v2)
Track 31 cannot be verified as accurate (confidence 6) [B0729613], AccurateRip returned [34C07F88] (AR v2)
Track 32 cannot be verified as accurate (confidence 7) [31666B6A], AccurateRip returned [D599CC5E] (AR v2)
Track 33 cannot be verified as accurate (confidence 7) [C758ECB9], AccurateRip returned [78161BF1] (AR v2)
Track 34 cannot be verified as accurate (confidence 7) [97D506BC], AccurateRip returned [EFADE9A6] (AR v2)
Track 35 cannot be verified as accurate (confidence 7) [3672367C], AccurateRip returned [535DBB10] (AR v2)
Track 36 cannot be verified as accurate (confidence 7) [84D76468], AccurateRip returned [AC06BECC] (AR v2)
Track 37 cannot be verified as accurate (confidence 7) [03C1D65C], AccurateRip returned [957180F3] (AR v2)
Track 38 cannot be verified as accurate (confidence 7) [3CC6B112], AccurateRip returned [65651744] (AR v2)
Track 39 cannot be verified as accurate (confidence 7) [07C8779D], AccurateRip returned [FE571D60] (AR v2)
Track 40 cannot be verified as accurate (confidence 7) [839A9905], AccurateRip returned [145275F9] (AR v2)
Track 41 cannot be verified as accurate (confidence 7) [A6A6C264], AccurateRip returned [25AFA4EC] (AR v2)
Track 42 cannot be verified as accurate (confidence 7) [67E5A4DF], AccurateRip returned [FD05ACB3] (AR v2)
Track 43 cannot be verified as accurate (confidence 7) [258E916B], AccurateRip returned [1D38C404] (AR v2)
Track 44 cannot be verified as accurate (confidence 7) [2BE69607], AccurateRip returned [412D72B1] (AR v2)
Track 45 cannot be verified as accurate (confidence 7) [D8E0CE46], AccurateRip returned [A52F5CF2] (AR v2)
Track 46 cannot be verified as accurate (confidence 7) [341D8749], AccurateRip returned [4E4E1499] (AR v2)
Track 47 cannot be verified as accurate (confidence 7) [CC83DB53], AccurateRip returned [8468D9F4] (AR v2)
Track 48 cannot be verified as accurate (confidence 7) [69F99237], AccurateRip returned [8934D052] (AR v2)
Track 49 cannot be verified as accurate (confidence 6) [FB0E6A21], AccurateRip returned [7D377459] (AR v2)

No tracks could be verified as accurate
You may have a different pressing from the one(s) in the database

End of status report

==== Log checksum CB466C65838A0B4D6F917BF48B8CDF334073EB3420BFB9CD89B4604B67034753 ====

[CUETools log; Date: 14.08.2017 9:48:05; Version: 2.1.5]
[CTDB TOCID: nybeN_hWSsPiUGxRkDVIG_ZSVog-] found.
Track | CTDB Status
1 | (14/14) Accurately ripped
2 | (14/14) Accurately ripped
3 | (14/14) Accurately ripped
4 | (14/14) Accurately ripped
5 | (14/14) Accurately ripped
6 | (14/14) Accurately ripped
7 | (14/14) Accurately ripped
8 | (14/14) Accurately ripped
9 | (14/14) Accurately ripped
10 | (14/14) Accurately ripped
11 | (14/14) Accurately ripped
12 | (14/14) Accurately ripped
13 | (14/14) Accurately ripped
14 | (14/14) Accurately ripped
15 | (14/14) Accurately ripped
16 | (14/14) Accurately ripped
17 | (14/14) Accurately ripped
18 | (14/14) Accurately ripped
19 | (14/14) Accurately ripped
20 | (14/14) Accurately ripped
21 | (14/14) Accurately ripped
22 | (14/14) Accurately ripped
23 | (14/14) Accurately ripped
24 | (14/14) Accurately ripped
25 | (14/14) Accurately ripped
26 | (14/14) Accurately ripped
27 | (14/14) Accurately ripped
28 | (14/14) Accurately ripped
29 | (14/14) Accurately ripped
30 | (14/14) Accurately ripped
31 | (14/14) Accurately ripped
32 | (14/14) Accurately ripped
33 | (14/14) Accurately ripped
34 | (14/14) Accurately ripped
35 | (14/14) Accurately ripped
36 | (14/14) Accurately ripped
37 | (14/14) Accurately ripped
38 | (14/14) Accurately ripped
39 | (13/14) Accurately ripped
40 | (14/14) Accurately ripped
41 | (14/14) Accurately ripped
42 | (14/14) Accurately ripped
43 | (14/14) Accurately ripped
44 | (14/14) Accurately ripped
45 | (14/14) Accurately ripped
46 | (14/14) Accurately ripped
47 | (14/14) Accurately ripped
48 | (14/14) Accurately ripped
49 | (11/14) Accurately ripped, or (3/14) differs in 32 samples @04:14:71
[AccurateRip ID: 007ee514-109255ee-96117531] found.
Track [ CRC | V2 ] Status
01 [c587bbc0|79b5243a] (00+02/13) Accurately ripped
02 [0ae73d4f|04535ea5] (00+02/13) Accurately ripped
03 [f505c461|3a397c69] (00+02/13) Accurately ripped
04 [36c01620|752cf1f7] (00+02/13) Accurately ripped
05 [734b2800|b28bc747] (00+02/13) Accurately ripped
06 [ebf9fffe|763aa589] (00+02/12) Accurately ripped
07 [c6946c14|4b3b6993] (00+02/13) Accurately ripped
08 [f24653c5|2cf51351] (00+02/13) Accurately ripped
09 [a8be3df0|99f4474e] (00+02/13) Accurately ripped
10 [68229104|595ad1f6] (00+02/12) Accurately ripped
11 [cacd9f3d|6e793a08] (00+02/12) Accurately ripped
12 [b2e0c980|9b955c7f] (00+02/13) Accurately ripped
13 [d3cce41f|152f2b83] (00+02/13) Accurately ripped
14 [781310c4|51ecdd2f] (00+02/12) Accurately ripped
15 [26c45b45|cd725e6c] (00+02/13) Accurately ripped
16 [fd02f64f|4d406eb0] (00+02/13) Accurately ripped
17 [8d6d04d8|e2fb5ae9] (00+02/13) Accurately ripped
18 [a4b75854|0ba86daa] (00+02/13) Accurately ripped
19 [6cd704d1|5949c16a] (00+02/13) Accurately ripped
20 [bee8f8c7|1445df8e] (00+02/13) Accurately ripped
21 [1602746d|eab05788] (00+02/13) Accurately ripped
22 [70cd1a52|603931ad] (00+02/13) Accurately ripped
23 [39e783be|8563f00e] (00+02/13) Accurately ripped
24 [f864202a|fa7141ee] (00+02/13) Accurately ripped
25 [ce47c24f|ea0f2932] (00+02/13) Accurately ripped
26 [71c97dd8|5ee54b98] (00+02/13) Accurately ripped
27 [82dafff0|cd775afd] (00+02/12) Accurately ripped
28 [20c16724|d94400c0] (00+02/13) Accurately ripped
29 [d9e50406|42c0e725] (00+02/13) Accurately ripped
30 [1b4d3be8|8a5910bd] (00+02/13) Accurately ripped
31 [ae387dfe|b0729613] (00+02/12) Accurately ripped
32 [17f37672|31666b6a] (00+02/13) Accurately ripped
33 [cac831d6|c758ecb9] (00+02/13) Accurately ripped
34 [d8e6bce0|97d506bc] (00+02/13) Accurately ripped
35 [883e0201|3672367c] (00+02/13) Accurately ripped
36 [a334623d|84d76468] (00+02/13) Accurately ripped
37 [2f85ea43|03c1d65c] (00+02/13) Accurately ripped
38 [ecef70bb|3cc6b112] (00+02/13) Accurately ripped
39 [fe1abbfc|07c8779d] (00+02/13) Accurately ripped
40 [b6a7a0a0|839a9905] (00+02/13) Accurately ripped
41 [3599e324|a6a6c264] (00+02/13) Accurately ripped
42 [0d1cf5cf|67e5a4df] (00+02/13) Accurately ripped
43 [7c89e4ad|258e916b] (00+02/13) Accurately ripped
44 [8fe185b5|2be69607] (00+02/13) Accurately ripped
45 [7d2899d6|d8e0ce46] (00+02/13) Accurately ripped
46 [d67fa85e|341d8749] (00+02/13) Accurately ripped
47 [c910a608|cc83db53] (00+02/13) Accurately ripped
48 [5784eb02|69f99237] (00+02/13) Accurately ripped
49 [34cc9477|fb0e6a21] (00+02/12) Accurately ripped
Offsetted by 30:
01 [06dc8d7a] (07/13) Accurately ripped
02 [2c2974d8] (07/13) Accurately ripped
03 [e45d5079] (07/13) Accurately ripped
04 [b8d411bc] (07/13) Accurately ripped
05 [04387798] (07/13) Accurately ripped
06 [62587fa8] (06/12) Accurately ripped
07 [69509d49] (07/13) Accurately ripped
08 [0493d14a] (07/13) Accurately ripped
09 [fd4c0392] (07/13) Accurately ripped
10 [50d7ebc4] (06/12) Accurately ripped
11 [2073dbde] (06/12) Accurately ripped
12 [f0c0c36f] (07/13) Accurately ripped
13 [ca47a84f] (07/13) Accurately ripped
14 [eafdf57d] (06/12) Accurately ripped
15 [146480c1] (07/13) Accurately ripped
16 [b451f93a] (07/13) Accurately ripped
17 [4f6e32dc] (07/13) Accurately ripped
18 [fa86656c] (07/13) Accurately ripped
19 [4dda714f] (07/13) Accurately ripped
20 [bb84f14f] (07/13) Accurately ripped
21 [55e48a68] (07/13) Accurately ripped
22 [94818ae1] (07/13) Accurately ripped
23 [c4495291] (07/13) Accurately ripped
24 [3ca9d429] (07/13) Accurately ripped
25 [7f1e312f] (07/13) Accurately ripped
26 [61a3772f] (07/13) Accurately ripped
27 [5a4e0b89] (06/12) Accurately ripped
28 [da447b91] (07/13) Accurately ripped
29 [f3ff26c2] (07/13) Accurately ripped
30 [419b6815] (07/13) Accurately ripped
31 [34c07f88] (06/12) Accurately ripped
32 [d599cc5e] (07/13) Accurately ripped
33 [78161bf1] (07/13) Accurately ripped
34 [efade9a6] (07/13) Accurately ripped
35 [535dbb10] (07/13) Accurately ripped
36 [ac06becc] (07/13) Accurately ripped
37 [957180f3] (07/13) Accurately ripped
38 [65651744] (07/13) Accurately ripped
39 [fe571d60] (07/13) Accurately ripped
40 [145275f9] (07/13) Accurately ripped
41 [25afa4ec] (07/13) Accurately ripped
42 [fd05acb3] (07/13) Accurately ripped
43 [1d38c404] (07/13) Accurately ripped
44 [412d72b1] (07/13) Accurately ripped
45 [a52f5cf2] (07/13) Accurately ripped
46 [4e4e1499] (07/13) Accurately ripped
47 [8468d9f4] (07/13) Accurately ripped
48 [8934d052] (07/13) Accurately ripped
49 [7d377459] (06/12) Accurately ripped

Track Peak [ CRC32 ] [W/O NULL] [ LOG ]
– 94,6 [54B952E8] [02489E66] CRC32
01 22,1 [994628E0] [E5236BB3]
02 65,8 [7556DDB3] [DA43A26F]
03 23,1 [DB2BB23F] [3475E6C5]
04 41,4 [0311EBB7] [3036460F]
05 83,9 [3DD7B784] [2EB7D91A]
06 90,0 [15035A93] [94EDE821]
07 50,4 [4F41721E] [72187251]
08 26,4 [89452F88] [EF075D1E]
09 48,1 [9059DF37] [CED430CD]
10 94,6 [781AF827] [F43E3C5E]
11 45,7 [DDCF9B13] [4920D226]
12 32,7 [BD4D928C] [DE3BD7FA]
13 48,8 [D87C9155] [8D6BC0AD]
14 53,8 [1760AE60] [BE1B6802]
15 81,8 [0CE03DE6] [3A82A0A0]
16 60,4 [F081E336] [3D56887B]
17 28,8 [3F4D7E64] [AE17754E]
18 32,9 [AE0E8FBD] [FC907160]
19 34,3 [F99C9AD4] [B0DCFA83]
20 69,7 [857485AE] [5D105EBE]
21 54,9 [1E6CCC93] [82C5E095]
22 18,8 [4B179571] [7E6A507C]
23 63,8 [23F13A4E] [79850AD9]
24 90,6 [FC1E69D7] [F6D7221B]
25 50,8 [F2095EB6] [1CCBE2E5]
26 20,5 [BF121D84] [71918117]
27 63,5 [2EAAF8FD] [F804EE47]
28 75,5 [3C4F6052] [DDD12649]
29 65,3 [7B701485] [F278713C]
30 28,7 [F0097B33] [91217F38]
31 57,0 [A961BDAD] [4E032433]
32 31,2 [A02E86E2] [B2D210DA]
33 17,4 [4603B9D4] [DEFB355D]
34 29,5 [31D64D56] [24C6E23D]
35 79,3 [BF54E1E5] [3364301D]
36 65,6 [9267847A] [650B782B]
37 78,9 [B96A18B1] [B30D1DE1]
38 21,2 [EC4920A8] [EBF1828E]
39 80,7 [9D5C14A0] [9F568D54]
40 26,2 [0D427B6D] [4A3BD3D5]
41 52,8 [591B7BF9] [338AACEB]
42 35,2 [7323E781] [D357BC55]
43 21,6 [C29CF7FC] [9C409147]
44 63,1 [6C07D7CA] [25B29202]
45 87,8 [6F95575F] [51130C69]
46 25,7 [4210A8D9] [C650AD1F]
47 62,1 [A306BEDA] [8F621809]
48 41,3 [555F1148] [8BE6F37C]
49 34,8 [2ADEAE9B] [BA58F75A]

Thanks to the Original ripper A-Z

Download: