Subcategories

Le Orme - 11 CD Limited Edition [2009, Universal Music, 0602527156545]

Posted By: v3122
Le Orme - 11 CD Limited Edition [2009, Universal Music, 0602527156545]

Le Orme - 11 CD Limited Edition [2009, Universal Music, 0602527156545]
Progressive Rock/RPI | EAC Rip | Flac(Image) + Cue + Log | MP3 CBR 320Kbps
Covers(600dpi) Included | Universal Music, 0602527156545 | ~2704 + 1052 Mb | FSonic, FServe, Uploaded
Remastered by Maurizio Biancani at Fonoprint

Le Orme is probably the best expression of progressive rock in Italy, over PFM, Banco and others. This set have pro and cons. The quality of the remasters were made by the work of Maurizio Bancani and Federici Filippo very splendid in did…
Le Orme - 11 CD Limited Edition [2009, Universal Music, 0602527156545]

Le Orme:

Excellent early-70's Italian progressive trio (still around today) with classical stylings, featuring keyboards to the fore and a unique dreamy/powerful style. Le ORME was one of the three major Italian groups, the other two being PFM and BANCO. This band is usually considered as the Italian EMERSON, LAKE & PALMER and even BANCO DEL MUTUO SOCCORSO by the Italian singing. Its music is based upon organ developments and soli reminding Seventies groups which works are essentially built upon keyboards parts.

The band's truly classic period begins with their third next releases. "Uomo Di Pezza" (1972) is one of Le Orme's definitive Italian progressive rock albums. Although there is definitely an significant EMERSON, LAKE & PALMER influence here, as in the bombastic Moog and Hammond workouts countered by mellow balladry. It's not quite as integrated a feel as would characterize their next two albums, "Felona E Sonora" and "Contrappunti", though its fantastic nonetheless, and one of Le ORME's three essential albums. "Collage" and especially "Florian" offer a music tinged with classical music. "Felona E Sonora" (1973) is probably one of my top favorite Italian progressive rock albums. "Contrappunti" (1974) is another fantastic Le ORME album, and really the close of their classic trilogy. This album would effectively close out the band's streak of success.

"In Concerto" is an excellent live album from 1974 with many unreleased tracks. "Piccola Rapsodia Dell' Ape" is more recent, an excellent mixing of Progressive and Italian baroque music. "Collage" and especially "Florian" offer a music tinged with classical music. In 1993 the Japanese progrock label Crime Records released the 2-CD Live ORME with live-material from '75-'77. An far more captivating document than "In Concerto" from '74.

Their story goes on. After PICCOLA RAPSODIA DELL'APE (1980), in 1982 the band decides to break up. In 1986 they rejoin only for concerts but in 1990 a further work is issued (ORME). In 1992 Tony Pagliuca leaves the band, replaced by Michele Bon. That year they obtain the title of best Live-Act band seen in Italy. They never give up symphonic prog and their further works show it clearly. In spite of the success obtained by their live performances, in 1996 they publish a suite (IL FIUME). After obtaining a great success at the Los Angeles PROG FEST and at the PROG EAST in Quebec, they commit themselves to the new work which will be finished in 2001 (ELEMENTI). This latter, together with IL FIUME, will be part of a trilogy completed, in 2004, by L'INFINITO. The trilogy, a mix of songs and instrumental pieces, tells about the mankind through the 4 elements of the universe. In 2005 they are invited at the NEARFEST concert in Pennsylvania. Their music may well be considered as a continuous commitment in PROG ROCK: over the last 42 years they never gave up their passion. They also tried to convey PROG Rock to the people by participating to song contests such as Festival di Sanremo, a very popular TV music happening in Italy. Le Orme is one of the few foreigner bands who have been produced by a British label. The Famous Charisma Label issued FELONA E SORONA in English, lyrics by Peter Hammil, after their tour in England in 1973.
Le Orme - 11 CD Limited Edition [2009, Universal Music, 0602527156545]

Le Orme - 11 CD Limited Edition [2009, Universal Music, 0602527156545]

Le Orme - Collage (1971)
Progressive Rock/RPI | EAC Rip | Flac(Image) + Cue + Log | MP3 CBR 320Kbps
Covers(600dpi) Included | Universal Music, 0602527156552 | ~241 + 90 Mb | FSonic, FServe, Uploaded

Le Orme - 11 CD Limited Edition [2009, Universal Music, 0602527156545]

Tracklist:

01. Collage (4:42)
02. Era inverno (5:00)
03. Cemento armato (8:08)
04. Sguardo verso il cielo (4:12)
05. Evasione totale (6:56)
06. Immagini (2:58)
07. Morte di un fiore (3:00

Personnel:

- Aldo Tagliapietra / vocals, bass, guitar
- Toni Pagliuca / keyboards
- Michi Dei Rossi / drums

Exact Audio Copy V0.99 prebeta 5 from 4. May 2009

EAC extraction logfile from 12. October 2010, 17:56

Le Orme / Collage

Used drive : TEAC CD-W552E Adapter: 1 ID: 0

Read mode : Secure
Utilize accurate stream : Yes
Defeat audio cache : Yes
Make use of C2 pointers : No

Read offset correction : 6
Overread into Lead-In and Lead-Out : No
Fill up missing offset samples with silence : Yes
Delete leading and trailing silent blocks : No
Null samples used in CRC calculations : Yes
Used interface : Installed external ASPI interface

Used output format : Internal WAV Routines
Sample format : 44.100 Hz; 16 Bit; Stereo


TOC of the extracted CD

Track | Start | Length | Start sector | End sector
––––––––––––––––––––––––––––-
1 | 0:00.09 | 4:42.51 | 9 | 21209
2 | 4:42.60 | 5:02.18 | 21210 | 43877
3 | 9:45.03 | 7:09.28 | 43878 | 76080
4 | 16:54.31 | 4:13.72 | 76081 | 95127
5 | 21:08.28 | 6:57.34 | 95128 | 126436
6 | 28:05.62 | 3:00.07 | 126437 | 139943
7 | 31:05.69 | 3:03.14 | 139944 | 153682


Range status and errors

Selected range

Filename E:\Muzons\Le Orme - 11CD Limited Edition (2009)\1971 - Collage\Le Orme - Collage.wav

Peak level 100.0 %
Range quality 100.0 %
Copy CRC 8717E9C7
Copy OK

No errors occurred


AccurateRip summary

Track 1 accurately ripped (confidence 4) [D385F9A8]
Track 2 accurately ripped (confidence 4) [89CC6D32]
Track 3 accurately ripped (confidence 4) [51498C08]
Track 4 accurately ripped (confidence 4) [9020EB34]
Track 5 accurately ripped (confidence 4) [F3A959C0]
Track 6 accurately ripped (confidence 4) [C7C248EE]
Track 7 accurately ripped (confidence 3) [2F1FA302]

All tracks accurately ripped

End of status report

AUDIOCHECKER v2.0 beta (build 457) - by Dester - opdester@freemail.hu
~~~~~~~~~~~~~~~~~~~~~~~~~~~~~~~~~~
-=== DO NOT EDIT THIS FILE! ===-

Path: …\1971 - Collage

01 -=- Le Orme - Collage.flac -=- CDDA (99%)

162411252

[Verification date: 09.12.2010 19:11:46]
[Disc ID: 000a03f2-003bd739-62080107]
Pregap length 00:00:09.
Track [ CRC ] Status
01 [d385f9a8] (05/05) Accurately ripped as in pressing(s) #1
02 [89cc6d32] (05/05) Accurately ripped as in pressing(s) #1
03 [51498c08] (05/05) Accurately ripped as in pressing(s) #1
04 [9020eb34] (05/05) Accurately ripped as in pressing(s) #1
05 [f3a959c0] (05/05) Accurately ripped as in pressing(s) #1
06 [c7c248ee] (05/05) Accurately ripped as in pressing(s) #1
07 [2f1fa302] (04/04) Accurately ripped as in pressing(s) #1

Track [ CRC32 ] [W/O NULL] [ LOG ]
– [8717E9C7] [19B2B942] CRC32
01 [785A50F2] [30DBD95F]
02 [E0CC44CF] [E9396A67]
03 [8A74BD87] [1D97810D]
04 [E0AC0E1D] [10E5B2B1]
05 [D02837F8] [32D344E9]
06 [2D9BAFE2] [10EBED38]
07 [B9EC82B6] [7D67CC6A]

–––––––––––––––––––––––––––––––––––––––––-

Le Orme - 11 CD Limited Edition [2009, Universal Music, 0602527156545]

Le Orme - Uomo Di Pezza (1972)
Progressive Rock/RPI | EAC Rip | Flac(Image) + Cue + Log | MP3 CBR 320Kbps
Covers(600dpi) Included | Universal Music, 0602527156569 | ~231 + 85 Mb | FSonic, FServe, Uploaded

Le Orme - 11 CD Limited Edition [2009, Universal Music, 0602527156545]

Tracklist:

01. Una dolcezza nuova (5:28)
02. Gioco di bimba (2:54)
03. La porta chiusa (7:28)
04. Breve immagine (2:42)
05. Figure di cartone (3:48)
06. Aspettando l'alba (4:43)
07. Alienazione (4:43)

Personnel:

- Toni Pagliuca / organ, synthesizer, piano, electric harpsichord, mellotron, celeste
- Aldo Tagliapietra / vocals, bass guitar, electric guitar, 12 strings acoustic guitar
- Michi Dei Rossi / drums, bells, percussions

- Gian Piero Reverberi / piano on "Una dolcezza nuova"

Exact Audio Copy V0.99 prebeta 5 from 4. May 2009

EAC extraction logfile from 12. October 2010, 18:05

Le Orme / Uomo Di Pezza

Used drive : TEAC CD-W552E Adapter: 1 ID: 0

Read mode : Secure
Utilize accurate stream : Yes
Defeat audio cache : Yes
Make use of C2 pointers : No

Read offset correction : 6
Overread into Lead-In and Lead-Out : No
Fill up missing offset samples with silence : Yes
Delete leading and trailing silent blocks : No
Null samples used in CRC calculations : Yes
Used interface : Installed external ASPI interface

Used output format : Internal WAV Routines
Sample format : 44.100 Hz; 16 Bit; Stereo


TOC of the extracted CD

Track | Start | Length | Start sector | End sector
––––––––––––––––––––––––––––-
1 | 0:00.20 | 5:28.62 | 20 | 24681
2 | 5:29.07 | 2:53.59 | 24682 | 37715
3 | 8:22.66 | 7:29.62 | 37716 | 71452
4 | 15:52.53 | 2:42.12 | 71453 | 83614
5 | 18:34.65 | 3:48.68 | 83615 | 100782
6 | 22:23.58 | 4:42.65 | 100783 | 121997
7 | 27:06.48 | 4:44.01 | 121998 | 143298


Range status and errors

Selected range

Filename E:\Muzons\Le Orme - 11CD Limited Edition (2009)\1972 - Uomo Di Pezza\Le Orme - Uomo Di Pezza.wav

Peak level 100.0 %
Range quality 99.9 %
Copy CRC E1678F02
Copy OK

No errors occurred


AccurateRip summary

Track 1 accurately ripped (confidence 3) [4F7291C8]
Track 2 accurately ripped (confidence 3) [207563D4]
Track 3 accurately ripped (confidence 3) [A7EAAD19]
Track 4 accurately ripped (confidence 3) [8ADF2641]
Track 5 accurately ripped (confidence 3) [1919BC83]
Track 6 accurately ripped (confidence 3) [6E07EFDC]
Track 7 accurately ripped (confidence 2) [BEED1590]

All tracks accurately ripped

End of status report

AUDIOCHECKER v2.0 beta (build 457) - by Dester - opdester@freemail.hu
~~~~~~~~~~~~~~~~~~~~~~~~~~~~~~~~~~
-=== DO NOT EDIT THIS FILE! ===-

Path: …\1972 - Uomo Di Pezza

01 -=- Le Orme - Uomo Di Pezza.flac -=- CDDA (100%)

250751396

[Verification date: 09.12.2010 19:12:18]
[Disc ID: 0008e78e-0034f887-4b077607]
Pregap length 00:00:20.
Track [ CRC ] Status
01 [4f7291c8] (04/04) Accurately ripped as in pressing(s) #1
02 [207563d4] (04/04) Accurately ripped as in pressing(s) #1
03 [a7eaad19] (04/04) Accurately ripped as in pressing(s) #1
04 [8adf2641] (04/04) Accurately ripped as in pressing(s) #1
05 [1919bc83] (04/04) Accurately ripped as in pressing(s) #1
06 [6e07efdc] (04/04) Accurately ripped as in pressing(s) #1
07 [beed1590] (03/03) Accurately ripped as in pressing(s) #1

Track [ CRC32 ] [W/O NULL] [ LOG ]
– [E1678F02] [83963108] CRC32
01 [C25D062C] [07BE8AA3]
02 [1A36C381] [F6E426E1]
03 [E2E27BE2] [665F79EA]
04 [286D48ED] [807B78F6]
05 [6E5B8A38] [A7CE7DDC]
06 [0D96548D] [8C600F51]
07 [63E56432] [A51CD7E6]

–––––––––––––––––––––––––––––––––––––––––-

Le Orme - 11 CD Limited Edition [2009, Universal Music, 0602527156545]

Le Orme - Felona e Sorona (1973)
Progressive Rock/RPI | EAC Rip | Flac(Image) + Cue + Log | MP3 CBR 320Kbps
Covers(600dpi) Included | Universal Music, 0602527156576 | ~235 + 89 Mb | FSonic, FServe, Uploaded

Le Orme - 11 CD Limited Edition [2009, Universal Music, 0602527156545]

Tracklist:

01. Sospesi nell'incredibile (In Between) (8:43)
02. Felona (1:58)
03. La solitudine di chi protegge il mondo (The Maker) (1:57)
04. L'equilbrio (Web of Time) (3:47)
05. Sorona (2:28)
06. Attesa inerte (The Plan) (3:25)
07. Ritratto di un mattino (The Balance) (3:29)
08. All'infuori del tempo (Return to Naught) (4:08)
09. Ritorno al nulla (3:34)

Personnel:

- Aldo Tagliapietra / vocals, bass, guitar
- Toni Pagliuca / keyboards
- Michi Dei Rossi / drums

Exact Audio Copy V0.99 prebeta 5 from 4. May 2009

EAC extraction logfile from 12. October 2010, 18:57

Le Orme / Felona e Sorona

Used drive : TEAC CD-W552E Adapter: 1 ID: 0

Read mode : Secure
Utilize accurate stream : Yes
Defeat audio cache : Yes
Make use of C2 pointers : No

Read offset correction : 6
Overread into Lead-In and Lead-Out : No
Fill up missing offset samples with silence : Yes
Delete leading and trailing silent blocks : No
Null samples used in CRC calculations : Yes
Used interface : Installed external ASPI interface

Used output format : Internal WAV Routines
Sample format : 44.100 Hz; 16 Bit; Stereo


TOC of the extracted CD

Track | Start | Length | Start sector | End sector
––––––––––––––––––––––––––––-
1 | 0:00.00 | 8:42.04 | 0 | 39153
2 | 8:42.04 | 1:58.04 | 39154 | 48007
3 | 10:40.08 | 1:58.03 | 48008 | 56860
4 | 12:38.11 | 3:45.67 | 56861 | 73802
5 | 16:24.03 | 2:28.18 | 73803 | 84920
6 | 18:52.21 | 3:25.18 | 84921 | 100313
7 | 22:17.39 | 3:29.03 | 100314 | 115991
8 | 25:46.42 | 4:08.50 | 115992 | 134641
9 | 29:55.17 | 3:35.21 | 134642 | 150787


Range status and errors

Selected range

Filename E:\Muzons\Le Orme - 11CD Limited Edition (2009)\1973 - Felona E Sorona\Le Orme - Felona e Sorona.wav

Peak level 100.0 %
Range quality 100.0 %
Copy CRC 0CDB27E2
Copy OK

No errors occurred


AccurateRip summary

Track 1 accurately ripped (confidence 3) [8E85D24F]
Track 2 accurately ripped (confidence 3) [FB11D5E1]
Track 3 accurately ripped (confidence 3) [A9326654]
Track 4 accurately ripped (confidence 3) [F2D22F67]
Track 5 accurately ripped (confidence 3) [830D0C10]
Track 6 accurately ripped (confidence 3) [197211A6]
Track 7 accurately ripped (confidence 3) [08B3ACBC]
Track 8 accurately ripped (confidence 3) [D7298E26]
Track 9 accurately ripped (confidence 2) [B4A28F1D]

All tracks accurately ripped

End of status report

AUDIOCHECKER v2.0 beta (build 457) - by Dester - opdester@freemail.hu
~~~~~~~~~~~~~~~~~~~~~~~~~~~~~~~~~~
-=== DO NOT EDIT THIS FILE! ===-

Path: …\1973 - Felona E Sorona

01 -=- Le Orme - Felona e Sorona.flac -=- CDDA (99%)

257836084

Verification date: 09.12.2010 19:12:54]
[Disc ID: 000c4683-0056a41e-8007da09]
Track [ CRC ] Status
01 [8e85d24f] (04/04) Accurately ripped as in pressing(s) #1
02 [fb11d5e1] (04/04) Accurately ripped as in pressing(s) #1
03 [a9326654] (04/04) Accurately ripped as in pressing(s) #1
04 [f2d22f67] (04/04) Accurately ripped as in pressing(s) #1
05 [830d0c10] (04/04) Accurately ripped as in pressing(s) #1
06 [197211a6] (04/04) Accurately ripped as in pressing(s) #1
07 [08b3acbc] (04/04) Accurately ripped as in pressing(s) #1
08 [d7298e26] (04/04) Accurately ripped as in pressing(s) #1
09 [b4a28f1d] (03/03) Accurately ripped as in pressing(s) #1

Track [ CRC32 ] [W/O NULL] [ LOG ]
– [0CDB27E2] [C57C54BC] CRC32
01 [81CD800A] [95F49457]
02 [F7CE23B5] [B86A12DD]
03 [BEBC5357] [2D2AAB2F]
04 [34F2B4FD] [28BD0A28]
05 [F745A166] [DA4B6495]
06 [509852E0] [1A3961BB]
07 [CC6D32CD] [25461897]
08 [5A3B6CA4] [EF54F00D]
09 [BD2B0D40] [94DF6B1C]

–––––––––––––––––––––––––––––––––––––––––-

Le Orme - 11 CD Limited Edition [2009, Universal Music, 0602527156545]

Le Orme - Contrappunti (1974)
Progressive Rock/RPI | EAC Rip | Flac(Image) + Cue + Log | MP3 CBR 320Kbps
Covers(600dpi) Included | Universal Music, 0602527156583 | ~211 + 88 Mb | FSonic, FServe, Uploaded

Le Orme - 11 CD Limited Edition [2009, Universal Music, 0602527156545]

Tracklist:

01. Contrappunti (5:56)
02. Frutto acerbo (3:35)
03. Aliante (3:20)
04. India (3:13)
05. La fabbricante d'angeli (4:47)
06. Notturno (3:51)
07. Maggio (8:51

Personnel:

- Tony Pagliuca / keyboards
- Aldo Tagliapietra / vocal, bass, guitar
- Michi Dei Rossi / drums, percussion

- Gian Piero Reverberi / piano

Exact Audio Copy V0.99 prebeta 5 from 4. May 2009

EAC extraction logfile from 13. October 2010, 1:43

Le Orme / Contrappunti

Used drive : TEAC CD-W552E Adapter: 1 ID: 0

Read mode : Secure
Utilize accurate stream : Yes
Defeat audio cache : Yes
Make use of C2 pointers : No

Read offset correction : 6
Overread into Lead-In and Lead-Out : No
Fill up missing offset samples with silence : Yes
Delete leading and trailing silent blocks : No
Null samples used in CRC calculations : Yes
Used interface : Installed external ASPI interface

Used output format : Internal WAV Routines
Sample format : 44.100 Hz; 16 Bit; Stereo


TOC of the extracted CD

Track | Start | Length | Start sector | End sector
––––––––––––––––––––––––––––-
1 | 0:00.64 | 5:51.73 | 64 | 26461
2 | 5:52.62 | 3:30.35 | 26462 | 42246
3 | 9:23.22 | 3:17.54 | 42247 | 57075
4 | 12:41.01 | 3:07.06 | 57076 | 71106
5 | 15:48.07 | 4:44.72 | 71107 | 92478
6 | 20:33.04 | 3:49.48 | 92479 | 109701
7 | 24:22.52 | 8:49.41 | 109702 | 149417


Range status and errors

Selected range

Filename E:\Muzons\Le Orme - 11CD Limited Edition (2009)\1974 - Contrappunti\Le Orme - Contrappunti.wav

Peak level 99.9 %
Range quality 100.0 %
Copy CRC 8897B9F8
Copy OK

No errors occurred


AccurateRip summary

Track 1 accurately ripped (confidence 3) [72781687]
Track 2 accurately ripped (confidence 3) [9B85FB8A]
Track 3 accurately ripped (confidence 4) [FE029E50]
Track 4 accurately ripped (confidence 3) [F842AF37]
Track 5 accurately ripped (confidence 4) [564C23D7]
Track 6 accurately ripped (confidence 4) [9A1F7724]
Track 7 accurately ripped (confidence 2) [4D9AD070]

All tracks accurately ripped

End of status report

AUDIOCHECKER v2.0 beta (build 457) - by Dester - opdester@freemail.hu
~~~~~~~~~~~~~~~~~~~~~~~~~~~~~~~~~~
-=== DO NOT EDIT THIS FILE! ===-

Path: …\1974 - Contrappunti

01 -=- Le Orme - Contrappunti.flac -=- CDDA (100%)

140937412

[Verification date: 09.12.2010 19:13:18]
[Disc ID: 00085ecb-00321324-5607c807]
Pregap length 00:00:64.
Track [ CRC ] Status
01 [72781687] (04/04) Accurately ripped as in pressing(s) #1
02 [9b85fb8a] (04/04) Accurately ripped as in pressing(s) #1
03 [fe029e50] (05/05) Accurately ripped as in pressing(s) #1
04 [f842af37] (04/04) Accurately ripped as in pressing(s) #1
05 [564c23d7] (05/05) Accurately ripped as in pressing(s) #1
06 [9a1f7724] (05/05) Accurately ripped as in pressing(s) #1
07 [4d9ad070] (03/05) Accurately ripped as in pressing(s) #1

Track [ CRC32 ] [W/O NULL] [ LOG ]
– [8897B9F8] [A55173EA] CRC32
01 [E4B9C080] [6C60E79C]
02 [6BFB636B] [58D96EA8]
03 [8B070BE6] [B6BFF411]
04 [60964B70] [6405CE3E]
05 [2D131CBF] [11BFA2BA]
06 [512DD9B8] [4022610C]
07 [C67613E7] [7FDBF8D6]

–––––––––––––––––––––––––––––––––––––––––-

Le Orme - 11 CD Limited Edition [2009, Universal Music, 0602527156545]

Le Orme - In Concerto (1974)
Progressive Rock/RPI | EAC Rip | Flac(Image) + Cue + Log | MP3 CBR 320Kbps
Covers(600dpi) Included | Universal Music, 0602527156590 | ~287 + 121 Mb | FSonic, FServe, Uploaded

Le Orme - 11 CD Limited Edition [2009, Universal Music, 0602527156545]

Tracklist:

01. Truck of Fire (Part 1) (17:47)
02. Truck of Fire (Part 2) (4:59)
03. Sguardo verso il cielo (4:15)
04. Preludio a era inverno (5:09)
05. Era inverno (6:50)
06. Ritorno al nulla (3:24)
07. Collage (Sigla) (1:12)
08. Collage (3:24)

Personnel:

- Aldo Tagliapietra / vocals, bass, guitar
- Toni Pagliuca / keyboards
- Michi Dei Rossi / drums

Exact Audio Copy V0.99 prebeta 5 from 4. May 2009

EAC extraction logfile from 13. October 2010, 3:24

Le Orme / In Concerto

Used drive : TEAC CD-W552E Adapter: 1 ID: 0

Read mode : Secure
Utilize accurate stream : Yes
Defeat audio cache : Yes
Make use of C2 pointers : No

Read offset correction : 6
Overread into Lead-In and Lead-Out : No
Fill up missing offset samples with silence : Yes
Delete leading and trailing silent blocks : No
Null samples used in CRC calculations : Yes
Used interface : Installed external ASPI interface

Used output format : Internal WAV Routines
Sample format : 44.100 Hz; 16 Bit; Stereo


TOC of the extracted CD

Track | Start | Length | Start sector | End sector
––––––––––––––––––––––––––––-
1 | 0:00.00 | 17:47.24 | 0 | 80048
2 | 17:47.24 | 4:59.21 | 80049 | 102494
3 | 22:46.45 | 4:14.20 | 102495 | 121564
4 | 27:00.65 | 5:09.40 | 121565 | 144779
5 | 32:10.30 | 6:50.33 | 144780 | 175562
6 | 39:00.63 | 3:24.70 | 175563 | 190932
7 | 42:25.58 | 1:12.53 | 190933 | 196385
8 | 43:38.36 | 3:24.31 | 196386 | 211716


Range status and errors

Selected range

Filename E:\Muzons\Le Orme - 11CD Limited Edition (2009)\1974 - In Concerto\Le Orme - In Concerto.wav

Peak level 100.0 %
Range quality 99.9 %
Copy CRC A386A724
Copy OK

No errors occurred


AccurateRip summary

Track 1 accurately ripped (confidence 4) [C79D1BF2]
Track 2 accurately ripped (confidence 4) [44E59F00]
Track 3 accurately ripped (confidence 4) [4E54C626]
Track 4 accurately ripped (confidence 4) [C0D8FAF5]
Track 5 accurately ripped (confidence 5) [FF076126]
Track 6 accurately ripped (confidence 5) [8D51B234]
Track 7 accurately ripped (confidence 5) [DD667AC7]
Track 8 accurately ripped (confidence 3) [D30E9CD7]

All tracks accurately ripped

End of status report

AUDIOCHECKER v2.0 beta (build 457) - by Dester - opdester@freemail.hu
~~~~~~~~~~~~~~~~~~~~~~~~~~~~~~~~~~
-=== DO NOT EDIT THIS FILE! ===-

Path: …\1974 - In Concerto

01 -=- Le Orme - In Concerto.flac -=- CDDA (100%)

148046292

Verification date: 09.12.2010 19:13:50]
[Disc ID: 0012ab40-00731d82-650b0608]
Track [ CRC ] Status
01 [c79d1bf2] (05/05) Accurately ripped as in pressing(s) #1
02 [44e59f00] (05/05) Accurately ripped as in pressing(s) #1
03 [4e54c626] (05/05) Accurately ripped as in pressing(s) #1
04 [c0d8faf5] (05/05) Accurately ripped as in pressing(s) #1
05 [ff076126] (06/06) Accurately ripped as in pressing(s) #1
06 [8d51b234] (06/06) Accurately ripped as in pressing(s) #1
07 [dd667ac7] (06/06) Accurately ripped as in pressing(s) #1
08 [d30e9cd7] (04/06) Accurately ripped as in pressing(s) #1

Track [ CRC32 ] [W/O NULL] [ LOG ]
– [A386A724] [CD5CB0B6] CRC32
01 [56C8B2A2] [CF3063F2]
02 [A857A048] [4FDA5F80]
03 [29893815] [CCB28ED0]
04 [95FDEEE7] [3A94E7CE]
05 [362405AB] [DE1B2EC8]
06 [67DE76CB] [1EEBA339]
07 [9C5E8C8F] [CB2C6D7E]
08 [C2D0DD9E] [696B1F65]

–––––––––––––––––––––––––––––––––––––––––-

Le Orme - 11 CD Limited Edition [2009, Universal Music, 0602527156545]

Le Orme - Smogmagica (1975)
Progressive Rock/RPI | EAC Rip | Flac(Image) + Cue + Log | MP3 CBR 320Kbps
Covers(600dpi) Included | Universal Music, 0602527156606 | ~268 + 102 Mb | FSonic, FServe, Uploaded

Le Orme - 11 CD Limited Edition [2009, Universal Music, 0602527156545]

Tracklist:

01. Los Angeles (7:09)
02. Amico di ieri (3:15)
03. Ora o mai più (2:40)
04. Laserium Floyd (4:16)
05. Primi passi (3:28)
06. Immensa distesa (3:50)
07. Amanti di citta'(3:28)
08. L'uomo del pianino (3:18)
09. Laurel canyon (4:18)

Personnel:

- Tony Pagliuca / keyboards
- Aldo Tagliapietra / bass, acoustic guitar, lead vocals
- Michi Dei Rossi / drums, percussion
- Tolo Marton / electric guitar, harmonica, vocals

Exact Audio Copy V0.99 prebeta 5 from 4. May 2009

EAC extraction logfile from 13. October 2010, 3:33

Le Orme / Smogmagica

Used drive : TEAC CD-W552E Adapter: 1 ID: 0

Read mode : Secure
Utilize accurate stream : Yes
Defeat audio cache : Yes
Make use of C2 pointers : No

Read offset correction : 6
Overread into Lead-In and Lead-Out : No
Fill up missing offset samples with silence : Yes
Delete leading and trailing silent blocks : No
Null samples used in CRC calculations : Yes
Used interface : Installed external ASPI interface

Used output format : Internal WAV Routines
Sample format : 44.100 Hz; 16 Bit; Stereo


TOC of the extracted CD

Track | Start | Length | Start sector | End sector
––––––––––––––––––––––––––––-
1 | 0:00.64 | 7:11.16 | 64 | 32404
2 | 7:12.05 | 3:16.02 | 32405 | 47106
3 | 10:28.07 | 2:38.28 | 47107 | 58984
4 | 13:06.35 | 4:15.19 | 58985 | 78128
5 | 17:21.54 | 3:27.49 | 78129 | 93702
6 | 20:49.28 | 3:50.11 | 93703 | 110963
7 | 24:39.39 | 3:29.27 | 110964 | 126665
8 | 28:08.66 | 3:18.36 | 126666 | 141551
9 | 31:27.27 | 4:20.01 | 141552 | 161052


Range status and errors

Selected range

Filename E:\Muzons\Le Orme - 11CD Limited Edition (2009)\1975 - Smogmagica\Le Orme - Smogmagica.wav

Peak level 100.0 %
Range quality 99.9 %
Copy CRC BE33E95B
Copy OK

No errors occurred


AccurateRip summary

Track 1 accurately ripped (confidence 4) [DC92DC12]
Track 2 accurately ripped (confidence 4) [087F5BE5]
Track 3 accurately ripped (confidence 4) [8ED180B2]
Track 4 accurately ripped (confidence 4) [38DBD303]
Track 5 accurately ripped (confidence 4) [7C8853A1]
Track 6 accurately ripped (confidence 4) [22FA78BF]
Track 7 accurately ripped (confidence 4) [0483070B]
Track 8 accurately ripped (confidence 4) [5930D331]
Track 9 accurately ripped (confidence 2) [2781DDC1]

All tracks accurately ripped

End of status report

AUDIOCHECKER v2.0 beta (build 457) - by Dester - opdester@freemail.hu
~~~~~~~~~~~~~~~~~~~~~~~~~~~~~~~~~~
-=== DO NOT EDIT THIS FILE! ===-

Path: …\1975 - Smogmagica

01 -=- Le Orme - Smogmagica.flac -=- CDDA (99%)

72981284

[Verification date: 09.12.2010 19:14:16]
[Disc ID: 000cfac4-005c9d44-76086309]
Pregap length 00:00:64.
Track [ CRC ] Status
01 [dc92dc12] (05/05) Accurately ripped as in pressing(s) #1
02 [087f5be5] (05/05) Accurately ripped as in pressing(s) #1
03 [8ed180b2] (05/05) Accurately ripped as in pressing(s) #1
04 [38dbd303] (05/05) Accurately ripped as in pressing(s) #1
05 [7c8853a1] (05/05) Accurately ripped as in pressing(s) #1
06 [22fa78bf] (05/05) Accurately ripped as in pressing(s) #1
07 [0483070b] (05/05) Accurately ripped as in pressing(s) #1
08 [5930d331] (05/05) Accurately ripped as in pressing(s) #1
09 [2781ddc1] (03/03) Accurately ripped as in pressing(s) #1

Track [ CRC32 ] [W/O NULL] [ LOG ]
– [BE33E95B] [25EDBA00] CRC32
01 [E0A6187A] [9D9DC21E]
02 [7CC2A02D] [AF3BE11F]
03 [CE68A758] [0DF07A8E]
04 [520FBC00] [FE0B4635]
05 [4152D5D2] [3D9DB0C0]
06 [E02BF3A7] [3BD30E91]
07 [A5AD7702] [98648BE8]
08 [8179508B] [8E18EF70]
09 [F9B2CC0A] [6815C381]


–––––––––––––––––––––––––––––––––––––––––-

Le Orme - 11 CD Limited Edition [2009, Universal Music, 0602527156545]

Le Orme - Storia O Leggenda (1977)
Progressive Rock/RPI | EAC Rip | Flac(Image) + Cue + Log | MP3 CBR 320Kbps
Covers(600dpi) Included | Universal Music, 0602527156620 | ~254 + 102 Mb | FSonic, FServe, Uploaded

Le Orme - 11 CD Limited Edition [2009, Universal Music, 0602527156545]

Tracklist:

01. Tenerci per mano (4:40)
02. Storia o leggenda (5:05)
03. Il musicista (4:40)
04. Come una giostra (4:25)
05. Se io lavoro (4:20)
06. Un angelo (4:50)
07. Il quadro (4:10)
08. Al mercato delle pulci (4:05)

Personnel:

- Antonio Pagliuca / Hammond organ , polymoog, minimoog, piano, harmonium, accordion
- Aldo Tagliapietra / Fender bass, voice, indian harp
- Michi Dei Rossi / Pearl drums, marimba, glockenspiel, various percussion
- Germano Serafin / electric Fender guitar, acoustic guitars

Exact Audio Copy V0.99 prebeta 5 from 4. May 2009

EAC extraction logfile from 13. October 2010, 4:39

Le Orme / Storia O Leggenda

Used drive : TEAC CD-W552E Adapter: 1 ID: 0

Read mode : Secure
Utilize accurate stream : Yes
Defeat audio cache : Yes
Make use of C2 pointers : No

Read offset correction : 6
Overread into Lead-In and Lead-Out : No
Fill up missing offset samples with silence : Yes
Delete leading and trailing silent blocks : No
Null samples used in CRC calculations : Yes
Used interface : Installed external ASPI interface

Used output format : Internal WAV Routines
Sample format : 44.100 Hz; 16 Bit; Stereo


TOC of the extracted CD

Track | Start | Length | Start sector | End sector
––––––––––––––––––––––––––––-
1 | 0:00.00 | 4:33.55 | 0 | 20529
2 | 4:33.55 | 5:05.06 | 20530 | 43410
3 | 9:38.61 | 4:43.39 | 43411 | 64674
4 | 14:22.25 | 4:25.30 | 64675 | 84579
5 | 18:47.55 | 4:21.69 | 84580 | 104223
6 | 23:09.49 | 4:49.13 | 104224 | 125911
7 | 27:58.62 | 4:06.56 | 125912 | 144417
8 | 32:05.43 | 4:06.71 | 144418 | 162938


Range status and errors

Selected range

Filename E:\Muzons\Le Orme - 11CD Limited Edition (2009)\1977 - Storia O Leggenda\Le Orme - Storia O Leggenda.wav

Peak level 100.0 %
Range quality 99.9 %
Copy CRC 2AC6F2F4
Copy OK

No errors occurred


AccurateRip summary

Track 1 accurately ripped (confidence 4) [F7EB784C]
Track 2 accurately ripped (confidence 4) [0A399DF5]
Track 3 accurately ripped (confidence 4) [C0E2009D]
Track 4 accurately ripped (confidence 4) [FD393043]
Track 5 accurately ripped (confidence 4) [7337EF3B]
Track 6 accurately ripped (confidence 4) [89494993]
Track 7 accurately ripped (confidence 4) [3A90CF92]
Track 8 accurately ripped (confidence 2) [D4364046]

All tracks accurately ripped

End of status report

AUDIOCHECKER v2.0 beta (build 457) - by Dester - opdester@freemail.hu
~~~~~~~~~~~~~~~~~~~~~~~~~~~~~~~~~~
-=== DO NOT EDIT THIS FILE! ===-

Path: …\1977 - Storia O Leggenda

01 -=- Le Orme - Storia O Leggenda.flac -=- CDDA (100%)

137080884

Verification date: 09.12.2010 19:14:43]
[Disc ID: 000b7461-004c02a9-6c087c08]
Track [ CRC ] Status
01 [f7eb784c] (05/05) Accurately ripped as in pressing(s) #1
02 [0a399df5] (05/05) Accurately ripped as in pressing(s) #1
03 [c0e2009d] (05/05) Accurately ripped as in pressing(s) #1
04 [fd393043] (05/05) Accurately ripped as in pressing(s) #1
05 [7337ef3b] (05/05) Accurately ripped as in pressing(s) #1
06 [89494993] (05/05) Accurately ripped as in pressing(s) #1
07 [3a90cf92] (05/05) Accurately ripped as in pressing(s) #1
08 [d4364046] (03/05) Accurately ripped as in pressing(s) #1

Track [ CRC32 ] [W/O NULL] [ LOG ]
– [2AC6F2F4] [98079B97] CRC32
01 [7ABEF462] [B97C9023]
02 [11129E65] [734D09DA]
03 [C7C67873] [CDC99BD5]
04 [62B1CC16] [FB63B019]
05 [8C0D56FB] [50C9D58C]
06 [693D43D2] [39AA670B]
07 [BCC887CF] [CBEACF0F]
08 [3C006D5F] [417E1698]

–––––––––––––––––––––––––––––––––––––––––-

Le Orme - 11 CD Limited Edition [2009, Universal Music, 0602527156545]

Le Orme - Verita' Nascoste (1977)
Progressive Rock/RPI | EAC Rip | Flac(Image) + Cue + Log | MP3 CBR 320Kbps
Covers(600dpi) Included | Universal Music, 0602527156613 | ~286 + 107 Mb | FSonic, FServe, Uploaded

Le Orme - 11 CD Limited Edition [2009, Universal Music, 0602527156545]

Tracklist:

01. Insieme al concerto (6:04)
02. In ottobre (6:40)
03. Verità nascoste (3:59)
04. Vedi Amsterdam… (4:54)
05. Regina al Troubadour (6:43)
06. Radiofelicità (4:55)
07. I salmoni (2:54)
08. Il gradino più stretto del cielo(4:56)

Personnel:

- Toni Pagliuca / Hammond organ, piano, keyboards, synth and mellotron
- Aldo Tagliapietra / voice, bass and Fender piano
- Michi Dei Rossi / drums, percussions, kettledrums, glockenspiel, tubular bells and gong
- Germano Serafin / electric guitar, acoustic guitar and bass (in "I salmoni")

Exact Audio Copy V0.99 prebeta 5 from 4. May 2009

EAC extraction logfile from 13. October 2010, 5:41

Le Orme / Verita' Nascoste

Used drive : TEAC CD-W552E Adapter: 1 ID: 0

Read mode : Secure
Utilize accurate stream : Yes
Defeat audio cache : Yes
Make use of C2 pointers : No

Read offset correction : 6
Overread into Lead-In and Lead-Out : No
Fill up missing offset samples with silence : Yes
Delete leading and trailing silent blocks : No
Null samples used in CRC calculations : Yes
Used interface : Installed external ASPI interface

Used output format : Internal WAV Routines
Sample format : 44.100 Hz; 16 Bit; Stereo


TOC of the extracted CD

Track | Start | Length | Start sector | End sector
––––––––––––––––––––––––––––-
1 | 0:00.00 | 6:04.47 | 0 | 27346
2 | 6:04.47 | 6:40.46 | 27347 | 57392
3 | 12:45.18 | 3:49.16 | 57393 | 74583
4 | 16:34.34 | 4:55.29 | 74584 | 96737
5 | 21:29.63 | 6:41.33 | 96738 | 126845
6 | 28:11.21 | 4:54.18 | 126846 | 148913
7 | 33:05.39 | 2:55.06 | 148914 | 162044
8 | 36:00.45 | 4:59.38 | 162045 | 184507


Range status and errors

Selected range

Filename E:\Muzons\Le Orme - 11CD Limited Edition (2009)\1977 - Verita' Nascoste\Le Orme - Verita' Nascoste.wav

Peak level 100.0 %
Range quality 100.0 %
Copy CRC D48E7C7A
Copy OK

No errors occurred


AccurateRip summary

Track 1 accurately ripped (confidence 3) [651B3145]
Track 2 accurately ripped (confidence 3) [ABA25494]
Track 3 accurately ripped (confidence 3) [58546016]
Track 4 accurately ripped (confidence 4) [B4E352DB]
Track 5 accurately ripped (confidence 4) [C40EBFD2]
Track 6 accurately ripped (confidence 3) [8CCFF995]
Track 7 accurately ripped (confidence 4) [DECDDBF5]
Track 8 cannot be verified as accurate (confidence 2) [013171CF], AccurateRip returned [BFBFF73C]

7 track(s) accurately ripped
1 track(s) could not be verified as accurate

Some tracks could not be verified as accurate

End of status report

AUDIOCHECKER v2.0 beta (build 457) - by Dester - opdester@freemail.hu
~~~~~~~~~~~~~~~~~~~~~~~~~~~~~~~~~~
-=== DO NOT EDIT THIS FILE! ===-

Path: …\1977 - Verita' Nascoste

01 -=- Le Orme - Verita' Nascoste.flac -=- CDDA (100%)

111771028

[Verification date: 09.12.2010 19:15:12]
[Disc ID: 000d6727-0058085a-81099c08]
Track [ CRC ] Status
01 [651b3145] (04/04) Accurately ripped as in pressing(s) #1
02 [aba25494] (04/04) Accurately ripped as in pressing(s) #1
03 [58546016] (04/04) Accurately ripped as in pressing(s) #1
04 [b4e352db] (05/05) Accurately ripped as in pressing(s) #1
05 [c40ebfd2] (05/05) Accurately ripped as in pressing(s) #1
06 [8ccff995] (04/04) Accurately ripped as in pressing(s) #1
07 [decddbf5] (05/05) Accurately ripped as in pressing(s) #1
08 [013171cf] (02/04) Accurately ripped as in pressing(s) #2

Track [ CRC32 ] [W/O NULL] [ LOG ]
– [D48E7C7A] [49C24943] CRC32
01 [92C3CC9F] [81A4AE1E]
02 [C71C1C05] [79A2E392]
03 [85E3DDA3] [30D2F51D]
04 [3893D4B1] [2EE24ACE]
05 [7D91E5EC] [FA1487BA]
06 [AB104B2C] [B823037D]
07 [6E6E3C5E] [2F6342A6]
08 [90291E35] [829E6843]

–––––––––––––––––––––––––––––––––––––––––-

Le Orme - 11 CD Limited Edition [2009, Universal Music, 0602527156545]

Le Orme - Florian (1979)
Progressive Rock/RPI | EAC Rip | Flac(Image) + Cue + Log | MP3 CBR 320Kbps
Covers(600dpi) Included | Universal Music, 0602527156637 | ~202 + 86 Mb | FSonic, FServe, Uploaded

Le Orme - 11 CD Limited Edition [2009, Universal Music, 0602527156545]

Tracklist:

01. Florian (6:40)
02. Jaffa (3:05)
03. Il mago (3:00)
04. Pietro il pescatore (3:20)
05. Calipso (3:40)
06. Fine di un viaggio (4:40)
07. El gran senser (7:10)

Personnel:

- Aldo Tagliapietra / cello, classic guitar, vocals
- Antonio Pagliuca / piano, harpsichord, harmonium
- Giuseppe (Michi) Dei Rossi / vibraphone, marimba, glockenspiel, percussion
- Germano Serafin / violin, acoustic guitar, bouzouki, mandolin

Exact Audio Copy V0.99 prebeta 5 from 4. May 2009

EAC extraction logfile from 13. October 2010, 6:01

Le Orme / Florian

Used drive : TEAC CD-W552E Adapter: 1 ID: 0

Read mode : Secure
Utilize accurate stream : Yes
Defeat audio cache : Yes
Make use of C2 pointers : No

Read offset correction : 6
Overread into Lead-In and Lead-Out : No
Fill up missing offset samples with silence : Yes
Delete leading and trailing silent blocks : No
Null samples used in CRC calculations : Yes
Used interface : Installed external ASPI interface

Used output format : Internal WAV Routines
Sample format : 44.100 Hz; 16 Bit; Stereo


TOC of the extracted CD

Track | Start | Length | Start sector | End sector
––––––––––––––––––––––––––––-
1 | 0:00.60 | 6:47.12 | 60 | 30596
2 | 6:47.72 | 3:08.55 | 30597 | 44751
3 | 9:56.52 | 3:07.04 | 44752 | 58780
4 | 13:03.56 | 3:26.49 | 58781 | 74279
5 | 16:30.30 | 3:47.53 | 74280 | 91357
6 | 20:18.08 | 4:52.43 | 91358 | 113300
7 | 25:10.51 | 7:04.21 | 113301 | 145121


Range status and errors

Selected range

Filename E:\Muzons\Le Orme - 11CD Limited Edition (2009)\1979 - Florian\Le Orme - Florian.wav

Peak level 100.0 %
Range quality 99.9 %
Copy CRC 8331CEDD
Copy OK

No errors occurred


AccurateRip summary

Track 1 accurately ripped (confidence 5) [A51C7033]
Track 2 accurately ripped (confidence 5) [21C98392]
Track 3 accurately ripped (confidence 5) [E8FEFF11]
Track 4 accurately ripped (confidence 5) [DF1E56EE]
Track 5 accurately ripped (confidence 5) [074B502B]
Track 6 accurately ripped (confidence 5) [06729021]
Track 7 accurately ripped (confidence 3) [0E510739]

All tracks accurately ripped

End of status report

AUDIOCHECKER v2.0 beta (build 457) - by Dester - opdester@freemail.hu
~~~~~~~~~~~~~~~~~~~~~~~~~~~~~~~~~~
-=== DO NOT EDIT THIS FILE! ===-

Path: …\1979 - Florian

01 -=- Le Orme - Florian.flac -=- CDDA (100%)

222141380

[Verification date: 09.12.2010 19:15:45]
[Disc ID: 000884ab-00326b49-5b078e07]
Pregap length 00:00:60.
Track [ CRC ] Status
01 [a51c7033] (06/06) Accurately ripped as in pressing(s) #1
02 [21c98392] (06/06) Accurately ripped as in pressing(s) #1
03 [e8feff11] (06/06) Accurately ripped as in pressing(s) #1
04 [df1e56ee] (06/06) Accurately ripped as in pressing(s) #1
05 [074b502b] (06/06) Accurately ripped as in pressing(s) #1
06 [06729021] (06/06) Accurately ripped as in pressing(s) #1
07 [0e510739] (04/06) Accurately ripped as in pressing(s) #1

Track [ CRC32 ] [W/O NULL] [ LOG ]
– [8331CEDD] [77FDC3C4] CRC32
01 [1FA8CAFE] [898F128F]
02 [8C538804] [8335CE3F]
03 [16DE9135] [37B3902E]
04 [B7D5E4E8] [F27F3859]
05 [0B373C41] [854CDFD2]
06 [C484EC06] [E867EF05]
07 [3B23A09D] [0A827755]

–––––––––––––––––––––––––––––––––––––––––-

Le Orme - 11 CD Limited Edition [2009, Universal Music, 0602527156545]

Le Orme - Piccola Rapsodia Dell'Ape (1980)
Progressive Rock/RPI | EAC Rip | Flac(Image) + Cue + Log | MP3 CBR 320Kbps
Covers(600dpi) Included | Universal Music, 0602527156644 | ~215 + 88 Mb | FSonic, FServe, Uploaded

Le Orme - 11 CD Limited Edition [2009, Universal Music, 0602527156545]

Tracklist:

1. Il treno (3:55)
2. Raccogli le nuvole (4:18)
3. La mia bianca sposa (3:48)
4. Piccola rapsodia dell'ape (5:16)
5. Charango (3:02)
6. Fiori di luce (3:29)
7. Fragile conchiglia (6:27)
8. Buona notte (2:46)

Personnel:

- Antonio Pagliuca / piano
- Aldo Tagliapietra / vocals, guitars, cello
- Giuseppe (Michi) Dei Rossi / vibraphone, marimba, glockenspiel, percussion
- Germano Serafin / violin, charango, bouzouki, 12-string guitar

Exact Audio Copy V0.99 prebeta 5 from 4. May 2009

EAC extraction logfile from 13. October 2010, 7:02

Le Orme / Piccola Rapsodia Dell'Ape

Used drive : TEAC CD-W552E Adapter: 1 ID: 0

Read mode : Secure
Utilize accurate stream : Yes
Defeat audio cache : Yes
Make use of C2 pointers : No

Read offset correction : 6
Overread into Lead-In and Lead-Out : No
Fill up missing offset samples with silence : Yes
Delete leading and trailing silent blocks : No
Null samples used in CRC calculations : Yes
Used interface : Installed external ASPI interface

Used output format : Internal WAV Routines
Sample format : 44.100 Hz; 16 Bit; Stereo


TOC of the extracted CD

Track | Start | Length | Start sector | End sector
––––––––––––––––––––––––––––-
1 | 0:00.00 | 3:51.35 | 0 | 17359
2 | 3:51.35 | 4:15.10 | 17360 | 36494
3 | 8:06.45 | 3:45.43 | 36495 | 53412
4 | 11:52.13 | 5:13.69 | 53413 | 76956
5 | 17:06.07 | 3:00.45 | 76957 | 90501
6 | 20:06.52 | 3:27.10 | 90502 | 106036
7 | 23:33.62 | 6:25.42 | 106037 | 134953
8 | 29:59.29 | 2:46.14 | 134954 | 147417


Range status and errors

Selected range

Filename E:\Muzons\Le Orme - 11CD Limited Edition (2009)\1980 - Piccola Rapsodia D'Ape\Le Orme - Piccola Rapsodia Dell'Ape.wav

Peak level 100.0 %
Range quality 100.0 %
Copy CRC B8542A13
Copy OK

No errors occurred


AccurateRip summary

Track 1 accurately ripped (confidence 5) [4036C6F5]
Track 2 accurately ripped (confidence 5) [04602458]
Track 3 accurately ripped (confidence 5) [C0FD02C4]
Track 4 accurately ripped (confidence 5) [77D0E9B3]
Track 5 accurately ripped (confidence 5) [972C0C9A]
Track 6 accurately ripped (confidence 5) [D61849AA]
Track 7 accurately ripped (confidence 5) [97404545]
Track 8 accurately ripped (confidence 3) [D597D696]

All tracks accurately ripped

End of status report

AUDIOCHECKER v2.0 beta (build 457) - by Dester - opdester@freemail.hu
~~~~~~~~~~~~~~~~~~~~~~~~~~~~~~~~~~
-=== DO NOT EDIT THIS FILE! ===-

Path: …\1980 - Piccola Rapsodia D'Ape

01 -=- Le Orme - Piccola Rapsodia Dell'Ape.flac -=- CDDA (100%)

109867652

[Verification date: 09.12.2010 19:16:13]
[Disc ID: 000a1e60-0043a984-5507ad08]
Track [ CRC ] Status
01 [4036c6f5] (06/06) Accurately ripped as in pressing(s) #1
02 [04602458] (06/06) Accurately ripped as in pressing(s) #1
03 [c0fd02c4] (06/06) Accurately ripped as in pressing(s) #1
04 [77d0e9b3] (06/06) Accurately ripped as in pressing(s) #1
05 [972c0c9a] (06/06) Accurately ripped as in pressing(s) #1
06 [d61849aa] (06/06) Accurately ripped as in pressing(s) #1
07 [97404545] (06/06) Accurately ripped as in pressing(s) #1
08 [d597d696] (04/04) Accurately ripped as in pressing(s) #1

Track [ CRC32 ] [W/O NULL] [ LOG ]
– [B8542A13] [5E4FF246] CRC32
01 [96247DC4] [FD41F395]
02 [BC09FCE9] [54FD9788]
03 [0BDA347C] [7B40374C]
04 [F64986BE] [CE2FC342]
05 [A1C31140] [A812C37B]
06 [0211AC01] [3C6FFC66]
07 [6DE8BA81] [E2E98F8D]
08 [33B8B6B8] [558CBE2C]

–––––––––––––––––––––––––––––––––––––––––-

Le Orme - 11 CD Limited Edition [2009, Universal Music, 0602527156545]

Le Orme - Orme (1990)
Progressive Rock/RPI | EAC Rip | Flac(Image) + Cue + Log | MP3 CBR 320Kbps
Covers(600dpi) Included | Universal Music, 0602527156651 | ~274 + 94 Mb | FSonic, FServe, Uploaded

Le Orme - 11 CD Limited Edition [2009, Universal Music, 0602527156545]

Tracklist:

1. L'universo (3:56)
2. Terra antica (4:00)
3. Dublino addio (4:32)
4. Diventare (4:55)
5. 25 maggio 1931 (3:52)
6. Se tu sorridi brucia il mondo (3:13)
7. Chi sono io (3:25)
8. Ritrovare te (3:31)
9. L'indifferenza (3:45)

Personnel:

- Michi Dei Rossi / drums
- Toni Pagliuca / keyboards
- Aldo Tagliapietra / voice, bass

Guests:
- Michele Bon / keyboards programming
- Alfredo Golino / drums, percussion
- Piero Cazzago & Mario Lavezzi / electric and acoustic guitars
- Angelo Branduardi / violin in "25 maggio 1931"
- Giulia Fasolino, Noemi Hackett & Charly Cinelli / choirs

Exact Audio Copy V0.99 prebeta 5 from 4. May 2009

EAC extraction logfile from 13. October 2010, 7:11

Le Orme / Orme

Used drive : TEAC CD-W552E Adapter: 1 ID: 0

Read mode : Secure
Utilize accurate stream : Yes
Defeat audio cache : Yes
Make use of C2 pointers : No

Read offset correction : 6
Overread into Lead-In and Lead-Out : No
Fill up missing offset samples with silence : Yes
Delete leading and trailing silent blocks : No
Null samples used in CRC calculations : Yes
Used interface : Installed external ASPI interface

Used output format : Internal WAV Routines
Sample format : 44.100 Hz; 16 Bit; Stereo


TOC of the extracted CD

Track | Start | Length | Start sector | End sector
––––––––––––––––––––––––––––-
1 | 0:00.00 | 3:58.19 | 0 | 17868
2 | 3:58.19 | 4:00.59 | 17869 | 35927
3 | 7:59.03 | 4:32.51 | 35928 | 56378
4 | 12:31.54 | 4:56.25 | 56379 | 78603
5 | 17:28.04 | 3:53.10 | 78604 | 96088
6 | 21:21.14 | 3:13.69 | 96089 | 110632
7 | 24:35.08 | 3:25.47 | 110633 | 126054
8 | 28:00.55 | 3:32.51 | 126055 | 142005
9 | 31:33.31 | 3:57.53 | 142006 | 159833


Range status and errors

Selected range

Filename E:\Muzons\Le Orme - 11CD Limited Edition (2009)\1990 - Orme\Le Orme - Orme.wav

Peak level 100.0 %
Range quality 99.9 %
Copy CRC 7C4DFBCC
Copy OK

No errors occurred


AccurateRip summary

Track 1 accurately ripped (confidence 4) [AEF751C3]
Track 2 accurately ripped (confidence 4) [093587C6]
Track 3 accurately ripped (confidence 4) [052A4B43]
Track 4 accurately ripped (confidence 4) [20EFAC35]
Track 5 accurately ripped (confidence 4) [7B4DD02C]
Track 6 accurately ripped (confidence 4) [51BD0BDD]
Track 7 accurately ripped (confidence 4) [2D0BCEAE]
Track 8 accurately ripped (confidence 4) [F49EB898]
Track 9 accurately ripped (confidence 3) [35335E8E]

All tracks accurately ripped

End of status report

AUDIOCHECKER v2.0 beta (build 457) - by Dester - opdester@freemail.hu
~~~~~~~~~~~~~~~~~~~~~~~~~~~~~~~~~~
-=== DO NOT EDIT THIS FILE! ===-

Path: …\1990 - Orme

01 -=- Le Orme - Orme.flac -=- CDDA (100%)

18419908

[Verification date: 09.12.2010 19:16:40]
[Disc ID: 000c9065-005b8522-73085309]
Track [ CRC ] Status
01 [aef751c3] (05/05) Accurately ripped as in pressing(s) #1
02 [093587c6] (05/05) Accurately ripped as in pressing(s) #1
03 [052a4b43] (05/05) Accurately ripped as in pressing(s) #1
04 [20efac35] (05/05) Accurately ripped as in pressing(s) #1
05 [7b4dd02c] (05/05) Accurately ripped as in pressing(s) #1
06 [51bd0bdd] (05/05) Accurately ripped as in pressing(s) #1
07 [2d0bceae] (05/05) Accurately ripped as in pressing(s) #1
08 [f49eb898] (05/05) Accurately ripped as in pressing(s) #1
09 [35335e8e] (04/04) Accurately ripped as in pressing(s) #1

Track [ CRC32 ] [W/O NULL] [ LOG ]
– [7C4DFBCC] [B29CC654] CRC32
01 [BFB9AEAE] [65BF303A]
02 [7ED3EA76] [DB090F33]
03 [B627B523] [B4D86F00]
04 [A9A07381] [47F0253C]
05 [9B35F461] [6A10C28B]
06 [999E7DE3] [87EE3BE5]
07 [DC4E2AB7] [15AA23D4]
08 [D1801F50] [47C8BC01]
09 [53906891] [244643F6]


======================


Le Orme - Collage (1971):
FileSonic: Flac | MP3
FileServe: Flac | MP3
Uploaded: Flac | MP3

Le Orme - Uomo Di Pezza (1972):
FileSonic: Flac | MP3
FileServe: Flac | MP3
Uploaded: Flac | MP3

Le Orme - Felona e Sorona (1973):
FileSonic: Flac | MP3
FileServe: Flac | MP3
Uploaded: Flac | MP3

Le Orme - Contrappunti (1974):
FileSonic: Flac | MP3
FileServe: Flac | MP3
Uploaded: Flac | MP3

Le Orme - In Concerto (1974):
FileSonic: Flac | MP3
FileServe: Flac | MP3
Uploaded: Flac | MP3

Le Orme - Smogmagica (1975):
FileSonic: Flac | MP3
FileServe: Flac | MP3
Uploaded: Flac | MP3

Le Orme - Storia O Leggenda (1977):
FileSonic: Flac | MP3
FileServe: Flac | MP3
Uploaded: Flac | MP3

Le Orme - Verita' Nascoste (1977):
FileSonic: Flac | MP3
FileServe: Flac | MP3
Uploaded: Flac | MP3

Le Orme - Florian (1979):
FileSonic: Flac | MP3
FileServe: Flac | MP3
Uploaded: Flac | MP3

Le Orme - Piccola Rapsodia Dell'Ape (1980):
FileSonic: Flac | MP3
FileServe: Flac | MP3
Uploaded: Flac | MP3

Le Orme - Orme (1990):
FileSonic: Flac | MP3
FileServe: Flac | MP3
Uploaded: Flac | MP3

In case you encounter dead links, please send me a private message.

All thanks go to erro