Subcategories

Lee Ritenour - A Twist Of Rit (2015) {Japan SHM-CD}

Posted By: tiburon
Lee Ritenour - A Twist Of Rit (2015) {Japan SHM-CD}

Lee Ritenour - A Twist Of Rit (2015) {Japan SHM-CD}
EAC 1.1 | FLAC tracks level 8 | Cue+Log+M3U | Full Scans 300dpi | 510MB + 5% Recovery
MP3 CBR 320 Kbps | 208MB + 5% Recovery
Genre: Jazz-Funk, Fusion, Smooth Jazz

A Twist of Rit is Lee Ritenour’s new 2015 Concord Records release. A star-studded band performs a number of new compositions combining with fresh, “twisted” versions of some of his earliest funky, fusion material from the 70s and early 80s. Combining some of the hottest rhythm players out there, including Ron Bruner Jr., Chris Coleman, Dave Weckl, Melvin Davis, Paulinho Da Costa, Michael Thompson, John Beasley, Patrice Rushen, and Dave Grusin with a five piece Horn Section and Ernie Watts on tenor sax, A Twist of Rit will make for one of his most special releases to date.
Track List
01. Wild Rice [5:32]
02. Fatback [5:52]
03. Ooh Yeah [5:01]
04. W.O.R.K.n’ IT (Weckl, Ozone, Ritenour, Kennedy) [7:51]
05. A Little Bit Of This And A Little Bit Of That [5:37]
06. Pearl [4:50]
07. Twist Of Rit [5:38]
08. Countdown [4:51]
09. Soaring [8:11]
10. Sweet Syncopation [5:28]
11. Bullet Train [6:36]
12. Waltz For Carmen [5:00]
13. More W.O.R.K. (Bonus Track) [5:26]

musicians
Guitar [Gibson L5 And Les Paul With Ladner Amplifiers] – Lee Ritenour
Electric Piano – Patrice Rushen
Acoustic Bass – Tom Kennedy
Percussion – Paulinho Da Costa
Baritone Saxophone – Adam Schroeder
Bass Guitar – Melvin Davis
Classical Guitar – Tony Pusztai
Drums – Christopher Coleman (2), Dave Weckl, Ronald Bruner Jr.
Flugelhorn, Trumpet – Rashawn Ross
Flute, Baritone Saxophone – Bob Sheppard
Guitar – David T. Walker, Melvin "Wah Wah" Watson
Piano [Acoustic], Organ [Hammond B3] – Makoto Ozone
Piano [Acoustic], Organ [Hammond B3], Synthesizer, Clavinet, Vibraphone – Dave Grusin
Piano, Synthesizer, Clavinet, Electric Piano – John Beasley
Rhythm Guitar – Michael Thompson
Tenor Saxophone – Ernie Watts, Tom Luer
Trombone – Wendell Kelly

Produced by Lee Ritenour


Exact Audio Copy V1.1 from 23. June 2015

Отчёт EAC об извлечении, выполненном 18. августа 2015, 12:05

Lee Ritenour / A Twist Of Rit

Дисковод: SlimtypeeSAU208 2 Adapter: 1 ID: 1

Режим чтения : Достоверность
Использование точного потока : Да
Отключение кэша аудио : Да
Использование указателей C2 : Нет

Коррекция смещения при чтении : 6
Способность читать области Lead-in и Lead-out : Нет
Заполнение пропущенных сэмплов тишиной : Да
Удаление блоков с тишиной в начале и конце : Нет
При вычислениях CRC использовались нулевые сэмплы : Да
Интерфейс : Встроенный Win32-интерфейс для Win NT/2000
Обработка зазоров : Добавлено к предыдущему треку

Выходной формат : Пользовательский кодировщик
Выбранный битрейт : 896 kBit/s
Качество : Высокий
Добавление ID3-тега : Нет
Утилита сжатия : C:\Program Files\Exact Audio Copy\Flac\flac.exe
Дополнительные параметры : -V -8 -T "Date=%year%" -T "Genre=%genre%" %source%


TOC извлечённого CD

Трек | Старт | Длительность | Начальный сектор | Конечный сектор
––––––––––––––––––––––––––––––––––-
1 | 0:00.00 | 5:32.39 | 0 | 24938
2 | 5:32.39 | 5:51.60 | 24939 | 51323
3 | 11:24.24 | 5:01.25 | 51324 | 73923
4 | 16:25.49 | 7:51.15 | 73924 | 109263
5 | 24:16.64 | 5:36.67 | 109264 | 134530
6 | 29:53.56 | 4:50.02 | 134531 | 156282
7 | 34:43.58 | 5:38.37 | 156283 | 181669
8 | 40:22.20 | 4:51.15 | 181670 | 203509
9 | 45:13.35 | 8:10.74 | 203510 | 240333
10 | 53:24.34 | 5:28.29 | 240334 | 264962
11 | 58:52.63 | 6:36.07 | 264963 | 294669
12 | 65:28.70 | 4:58.20 | 294670 | 317039
13 | 70:27.15 | 5:26.04 | 317040 | 341493


Трек 1

Имя файла C:\Users\ALEXEY\Documents\AUDIO_2\01 Трек01.wav

Длина предзазора 0:00:02.00

Пиковый уровень 100.0 %
Скорость извлечения 3.1 X
Качество трека 100.0 %
CRC теста AB6E18D1
CRC копии AB6E18D1
Трек не обнаружен в базе AccurateRip
Копирование… OK

Трек 2

Имя файла C:\Users\ALEXEY\Documents\AUDIO_2\02 Трек02.wav

Длина предзазора 0:00:01.44

Пиковый уровень 100.0 %
Скорость извлечения 3.5 X
Качество трека 100.0 %
CRC теста 594C9E21
CRC копии 594C9E21
Трек не обнаружен в базе AccurateRip
Копирование… OK

Трек 3

Имя файла C:\Users\ALEXEY\Documents\AUDIO_2\03 Трек03.wav

Длина предзазора 0:00:01.08

Пиковый уровень 100.0 %
Скорость извлечения 3.7 X
Качество трека 100.0 %
CRC теста 97E8CDC4
CRC копии 97E8CDC4
Трек не обнаружен в базе AccurateRip
Копирование… OK

Трек 4

Имя файла C:\Users\ALEXEY\Documents\AUDIO_2\04 Трек04.wav

Длина предзазора 0:00:01.02

Пиковый уровень 100.0 %
Скорость извлечения 4.3 X
Качество трека 100.0 %
CRC теста 1A6EE7D1
CRC копии 1A6EE7D1
Трек не обнаружен в базе AccurateRip
Копирование… OK

Трек 5

Имя файла C:\Users\ALEXEY\Documents\AUDIO_2\05 Трек05.wav

Длина предзазора 0:00:00.70

Пиковый уровень 100.0 %
Скорость извлечения 4.5 X
Качество трека 100.0 %
CRC теста ACC9DA81
CRC копии ACC9DA81
Трек не обнаружен в базе AccurateRip
Копирование… OK

Трек 6

Имя файла C:\Users\ALEXEY\Documents\AUDIO_2\06 Трек06.wav

Длина предзазора 0:00:02.15

Пиковый уровень 98.1 %
Скорость извлечения 4.6 X
Качество трека 100.0 %
CRC теста 444E082A
CRC копии 444E082A
Трек не обнаружен в базе AccurateRip
Копирование… OK

Трек 7

Имя файла C:\Users\ALEXEY\Documents\AUDIO_2\07 Трек07.wav

Длина предзазора 0:00:01.61

Пиковый уровень 100.0 %
Скорость извлечения 4.9 X
Качество трека 100.0 %
CRC теста E0BF5016
CRC копии E0BF5016
Трек не обнаружен в базе AccurateRip
Копирование… OK

Трек 8

Имя файла C:\Users\ALEXEY\Documents\AUDIO_2\08 Трек08.wav

Длина предзазора 0:00:00.52

Пиковый уровень 100.0 %
Скорость извлечения 5.0 X
Качество трека 100.0 %
CRC теста 5CD6E9F1
CRC копии 5CD6E9F1
Трек не обнаружен в базе AccurateRip
Копирование… OK

Трек 9

Имя файла C:\Users\ALEXEY\Documents\AUDIO_2\09 Трек09.wav

Длина предзазора 0:00:01.56

Пиковый уровень 100.0 %
Скорость извлечения 5.6 X
Качество трека 100.0 %
CRC теста 8892C1FF
CRC копии 8892C1FF
Трек не обнаружен в базе AccurateRip
Копирование… OK

Трек 10

Имя файла C:\Users\ALEXEY\Documents\AUDIO_2\10 Трек10.wav

Длина предзазора 0:00:01.64

Пиковый уровень 100.0 %
Скорость извлечения 5.6 X
Качество трека 100.0 %
CRC теста BC7C08BD
CRC копии BC7C08BD
Трек не обнаружен в базе AccurateRip
Копирование… OK

Трек 11

Имя файла C:\Users\ALEXEY\Documents\AUDIO_2\11 Трек11.wav

Длина предзазора 0:00:02.38

Пиковый уровень 100.0 %
Скорость извлечения 5.5 X
Качество трека 99.9 %
CRC теста D313F8B1
CRC копии D313F8B1
Трек не обнаружен в базе AccurateRip
Копирование… OK

Трек 12

Имя файла C:\Users\ALEXEY\Documents\AUDIO_2\12 Трек12.wav

Длина предзазора 0:00:03.63

Пиковый уровень 97.3 %
Скорость извлечения 5.9 X
Качество трека 100.0 %
CRC теста 1D92F8F3
CRC копии 1D92F8F3
Трек не обнаружен в базе AccurateRip
Копирование… OK

Трек 13

Имя файла C:\Users\ALEXEY\Documents\AUDIO_2\13 Трек13.wav

Пиковый уровень 100.0 %
Скорость извлечения 6.1 X
Качество трека 100.0 %
CRC теста AD361085
CRC копии AD361085
Трек не обнаружен в базе AccurateRip
Копирование… OK


Ни одного трека нет в базе AccurateRip

Ошибок не произошло

Конец отчёта

==== Контрольная сумма отчёта 475C0F760C9855B859220CFB647709FFE5828DCA9F69E00AD6A01F2A6405AE11 ====

Lee Ritenour - A Twist Of Rit (2015) {Japan SHM-CD}
Lee Ritenour - A Twist Of Rit (2015) {Japan SHM-CD}


Thanks to the original ripper