Subcategories

Lee Ritenour - On The Line (1983) {1st US press} [Repost]

Posted By: tiburon
Lee Ritenour - On The Line (1983) {1st US press} [Repost]

Lee Ritenour - On The Line (1983) {1st US press}
EAC 0.95b3 | FLAC tracks level 8 | Cue+Log+M3U | Full Scans 300dpi | 236MB + 5% Recovery
Genre: Fusion, Smooth Jazz

"On The Line" is an in-studio concert. Seriously, read the liner notes! Lee fills the recording with big contemporary jazz names including Dave and Don Grusin on keyboards, Anthony Jackson and Nathan East sharing bass duties, and Ernie Watts on sax. This group then plays the entire set live, direct-to-disc. The album is a mixture of slow balladry, smooth-jazzy contemporary styling and a couple of thumping numbers that will have you trying to anticipate what the band will do next. This is a "must have" for any true Rit fan.
Track List
1. The Rit Variations 6:09
2. Starbright 4:09
3. On The Line 4:09
4. Tush 4:13
5. California Roll 4:11
6. Heavenly Bodies 5:22
7. Pedestrian 4:56
8. Dolphin Dreams 5:08

musicians
Lee Ritenour - guitars
Harvey Mason - drums
Nathan East - bass
Dave Grusin - keyboards
Don Grusin - keyboards
Anthony Jackson - bass
Ernie Watts - sax, synth sax
Steve Forman - percussion
Lennie Castro - percussion
Greg Mathieson - keyboards

Produced by Lee Ritenour


EAC extraction logfile from 17. October 2007, 23:14 for CD
Lee Ritenour / On The Line

Used drive : _NEC DVD_RW ND-3500AG Adapter: 1 ID: 1
Read mode : Secure with NO C2, accurate stream, disable cache
Read offset correction : 48
Overread into Lead-In and Lead-Out : No

Used output format : C:\Program\FLAC\flac.exe (User Defined Encoder)
192 kBit/s
Additional command line options : -V -8 -T "artist=%a" -T "title=%t" -T "album=%g" -T "date=%y" -T "tracknumber=%n" -T "genre=%m" %s

Other options :
Fill up missing offset samples with silence : Yes
Delete leading and trailing silent blocks : No
Installed external ASPI interface


Track 1
Filename I:\Finished downloads\Lee Ritenour - On The Line (1983) [FLAC] (1985 GRP)\01 - The Rit Variations.wav

Pre-gap length 0:00:02.00

Peak level 93.2 %
Track quality 100.0 %
Test CRC 56A5C15D
Copy CRC 56A5C15D
Copy OK

Track 2
Filename I:\Finished downloads\Lee Ritenour - On The Line (1983) [FLAC] (1985 GRP)\02 - Starbright.wav

Pre-gap length 0:00:02.13

Peak level 83.1 %
Track quality 100.0 %
Test CRC C0FC2392
Copy CRC C0FC2392
Copy OK

Track 3
Filename I:\Finished downloads\Lee Ritenour - On The Line (1983) [FLAC] (1985 GRP)\03 - On The Line.wav

Pre-gap length 0:00:01.30

Peak level 98.5 %
Track quality 100.0 %
Test CRC EDE2C48D
Copy CRC EDE2C48D
Copy OK

Track 4
Filename I:\Finished downloads\Lee Ritenour - On The Line (1983) [FLAC] (1985 GRP)\04 - Tush.wav

Pre-gap length 0:00:01.26

Peak level 70.4 %
Track quality 100.0 %
Test CRC 9A71451F
Copy CRC 9A71451F
Copy OK

Track 5
Filename I:\Finished downloads\Lee Ritenour - On The Line (1983) [FLAC] (1985 GRP)\05 - California Roll.wav

Pre-gap length 0:00:01.20

Peak level 92.8 %
Track quality 100.0 %
Test CRC 56F37010
Copy CRC 56F37010
Copy OK

Track 6
Filename I:\Finished downloads\Lee Ritenour - On The Line (1983) [FLAC] (1985 GRP)\06 - Heavenly Bodies.wav

Pre-gap length 0:00:00.89

Peak level 71.2 %
Track quality 100.0 %
Test CRC A35E5341
Copy CRC A35E5341
Copy OK

Track 7
Filename I:\Finished downloads\Lee Ritenour - On The Line (1983) [FLAC] (1985 GRP)\07 - Pedestrian.wav

Pre-gap length 0:00:00.80

Peak level 78.5 %
Track quality 100.0 %
Test CRC 1FAD71D9
Copy CRC 1FAD71D9
Copy OK

Track 8
Filename I:\Finished downloads\Lee Ritenour - On The Line (1983) [FLAC] (1985 GRP)\08 - Dolphin Dreams.wav

Pre-gap length 0:00:00.26

Peak level 76.0 %
Track quality 100.0 %
Test CRC E39A5F2E
Copy CRC E39A5F2E
Copy OK

No errors occured


End of status report


––––––––––––––––––––––––––––––––––––––––
Analyzed: Lee Ritenour / On The Line
––––––––––––––––––––––––––––––––––––––––

DR Peak RMS Duration Track
––––––––––––––––––––––––––––––––––––––––
DR15 -0.61 dB -17.75 dB 6:07 01-The Rit Variations
DR16 -1.61 dB -20.33 dB 4:04 02-Starbright
DR13 -0.13 dB -15.54 dB 4:13 03-On The Line
DR15 -3.05 dB -21.70 dB 4:28 04-Tush
DR14 -0.65 dB -17.41 dB 4:22 05-California Roll
DR13 -2.94 dB -20.40 dB 5:25 06-Heavenly Bodies
DR14 -2.09 dB -17.77 dB 5:02 07-Pedestrian
DR13 -2.38 dB -20.46 dB 5:11 08-Dolphin Dreams
––––––––––––––––––––––––––––––––––––––––

Number of tracks: 8
Official DR value: DR14

Samplerate: 44100 Hz
Channels: 2
Bits per sample: 16
Bitrate: 704 kbps
Codec: FLAC
================================================================================

Lee Ritenour - On The Line (1983) {1st US press} [Repost]
Lee Ritenour - On The Line (1983) {1st US press} [Repost]
Lee Ritenour - On The Line (1983) {1st US press} [Repost]


Thanks for the rip to Flacmonster