Subcategories

Guillaume Lekeu - Works for String Quartet (Complete) (Quatuor Debussy)

Posted By: tapaz9
Guillaume Lekeu -  Works for String Quartet (Complete) (Quatuor Debussy)

Guillaume Lekeu - Works for String Quartet (Complete) (Quatuor Debussy)
Classical | EAC: FLAC+Cue+Log | 1 Cd, Covers + Booklet | 400 Mb
Label: Timpani - Date: 2010

Newcomer to the Timpani label, the Debussy Quartet is certainly one of the finest quartets on the current French musical scene. With 20 years experience and recipient of many international awards they proudly bring the chamber works of Guillaume Lekeu to life. Whereas his violin sonata is almost universally known, the music lover will discover the magnificent work of the quartets, filled with a profound, autumnal melancholy.
Tracks:

01. Molto adagio sempre cantante doloroso [0:11:18.41]
02. String Quartet in G major - I. Allegretto quasi allegro [0:09:44.20]
03. II. Adagio sostenuto [0:08:57.19]
04. III. Capriccio poco allegro [0:03:02.01]
05. IV. Romance: Andantino molto moderato quasi andante [0:05:18.52]
06. V. Poco allegro e molto scherzoso [0:02:17.16]
07. VI. Final: Allegro assai e appassionato [0:05:54.22]
08. Meditation [0:13:12.41]
09. Menuet [0:03:41.10]


Exact Audio Copy V1.0 beta 3 from 29. August 2011

EAC extraction logfile from 18. January 2013, 1:19

Guillaume Lekeu / Works for String Quartet (Complete) (Quatuor Debussy)

Used drive : TSSTcorpCDDVDW SH-S223C Adapter: 2 ID: 1

Read mode : Secure
Utilize accurate stream : Yes
Defeat audio cache : Yes
Make use of C2 pointers : No

Read offset correction : 697
Overread into Lead-In and Lead-Out : No
Fill up missing offset samples with silence : Yes
Delete leading and trailing silent blocks : No
Null samples used in CRC calculations : Yes
Used interface : Native Win32 interface for Win NT & 2000

Used output format : User Defined Encoder
Selected bitrate : 896 kBit/s
Quality : High
Add ID3 tag : No
Command line compressor : C:\Program Files (x86)\Exact Audio Copy\FLAC\FLAC.EXE
Additional command line options : -V -0 -T "COMMENT=Ripped by Tapaz9" -T "artist=%artist%" -T "title=%title%" -T "album=%albumtitle%" -T "date=%year%" -T "tracknumber=%tracknr%" -T "genre=%genre%" %source%


TOC of the extracted CD

Track | Start | Length | Start sector | End sector
––––––––––––––––––––––––––––-
1 | 0:00.00 | 11:18.41 | 0 | 50890
2 | 11:18.41 | 9:44.20 | 50891 | 94710
3 | 21:02.61 | 8:57.19 | 94711 | 135004
4 | 30:00.05 | 3:02.01 | 135005 | 148655
5 | 33:02.06 | 5:18.52 | 148656 | 172557
6 | 38:20.58 | 2:17.16 | 172558 | 182848
7 | 40:37.74 | 5:54.22 | 182849 | 209420
8 | 46:32.21 | 13:12.41 | 209421 | 268861
9 | 59:44.62 | 3:41.10 | 268862 | 285446


Range status and errors

Selected range

Filename F:\Musique\Lekeu\Lekeu_WorksForStringQuartet\Guillaume Lekeu - Works for String Quartet (Complete) (Quatuor Debussy).wav

Peak level 98.9 %
Extraction speed 14.3 X
Range quality 100.0 %
Copy CRC 21785AAC
Copy OK

No errors occurred

End of status report

==== Log checksum 46C49C8A6C07874BCF04284A56CD5245834C5D6CD0B73F63E1D6FD6EACDB06D7 ====

No Mirrors and Torrent-uploads Please

See my classical digital download posts in the Vinyl & HR section or check out My Avax blog