Subcategories

Lemonchill - 4 Albums (2009-2010)

Posted By: gribovar
Lemonchill - 4 Albums (2009-2010)

Lemonchill - 4 Albums (2009-2010)
EAC Rip | FLAC (image+.cue+log) - 1,28 GB | MP3 CBR 320 kbps (LAME 3.93) - 516 MB | Covers - 273 MB
Genre: Downtempo, Ambient, Progressive Trance | RAR 3% Rec. | Label: Ricochet Dream, Cyberset, Altar Records

Sentant (2009). This music is for your heart and soul. Lemonchill (aka Idan) grew up while listening to music all his life (all kinds of music: 60, 70, 80, jazz, electronic, industrial, gothic, synthpop, ambient, chill out, lounge, trance and more). In 2005 he finished his studies at BPM music college where he learned everything he knows today. Since then for two years he has been making and creating music. Now he is trying to combine all of these great music styles to one group in Lemonchill's album 'Sentant'. It is a mixture of all those music styles… Lemonchill's album 'Sentant (feeling in French) took him over one year to finish. It is very intense and personal, after a very painful relationship he went through.

Journey Through An Electric Garden (2009). Lemonchill first came to our attention a few years ago with his distinctive sound utilizing all the influences he grew up with in Haifa, Israel. The predominance of great trance music in Israel, along with synth pop and broader influences like Jazz, Folk, Lounge and ethnic sounds all come together on his new album , Journey Through An Electric Garden. Expect lush soundscapes, deep grooves with dub influences and uplifting four to the floor beats included for good measure. This album will fit right in with fans of Mystical Sun, Tripswitch, Abakus, Pete Ardron, Shpongle and more.

Conversations With God (2010). The remix album called "Conversations with God" is the second chapter in a special four album remix project each with its own unique music style. This one's a top-class progressive trance album released first on a digital format and then on a CD format in a few months. This is a remixed album and reworks made by the most progressive and active artists.

Sleeping With Giants (2010). The album titled 'Sleeping Eith Giants' will take your mind, body and soul through Subconsciousness astral waves. Featuring remix's from well respected electronic music artists such as Zero cult, Side liner, Hol Baumann, Terra Nine and Chronos, as well as new promising acts such as, Mindwave and Limbo. 'Sleeping with giants' is guaranteed to bring a new sensation to chill out and electronica music lovers out there. From the melancholic chill out remix for 'Moonlight Sonata' by Zero Cult to the experimental 'Subconsciousness whispers' remix by Limbo. Once again, Lemonchill managed to produce unique sound and atmosphere.

Lemonchill - 4 Albums (2009-2010)

Lemonchill - Sentant (2009)
EAC Rip | FLAC (image+.cue+log) - 314 MB | MP3 CBR 320 kbps (LAME 3.93) - 120 MB | Covers - 144 MB
Genre: Downtempo, Ambient | RAR 3% Rec. | Label: Ricochet Dream (RD042)

Tracklist:
01. Reflections
02. Memorabalia
03. Open Rene
04. Emotions
05. Mantra
06. Missing Souls
07. Dragonfly
08. Kanji

Total time: 51:01

Exact Audio Copy V1.0 beta 3 from 29. August 2011

EAC extraction logfile from 14. December 2011, 21:52

Lemonchill / Sentant

Used drive : HL-DT-STDVD-RAM GSA-H60L Adapter: 4 ID: 0

Read mode : Secure
Utilize accurate stream : Yes
Defeat audio cache : Yes
Make use of C2 pointers : No

Read offset correction : 667
Overread into Lead-In and Lead-Out : No
Fill up missing offset samples with silence : Yes
Delete leading and trailing silent blocks : No
Null samples used in CRC calculations : Yes
Used interface : Native Win32 interface for Win NT & 2000

Used output format : User Defined Encoder
Selected bitrate : 1024 kBit/s
Quality : High
Add ID3 tag : No
Command line compressor : C:\Program Files\Exact Audio Copy\Flac\flac.exe
Additional command line options : -V -8 -T "Date=%year%" -T "Genre=%genre%" %source%


TOC of the extracted CD

Track | Start | Length | Start sector | End sector
––––––––––––––––––––––––––––-
1 | 0:00.00 | 5:52.46 | 0 | 26445
2 | 5:52.46 | 6:51.13 | 26446 | 57283
3 | 12:43.59 | 7:06.25 | 57284 | 89258
4 | 19:50.09 | 6:06.47 | 89259 | 116755
5 | 25:56.56 | 7:03.41 | 116756 | 148521
6 | 33:00.22 | 5:48.22 | 148522 | 174643
7 | 38:48.44 | 6:01.02 | 174644 | 201720
8 | 44:49.46 | 6:11.29 | 201721 | 229574


Range status and errors

Selected range

Filename D:\Lemonchill - Sentant.wav

Peak level 100.0 %
Extraction speed 5.9 X
Range quality 100.0 %
Test CRC A8D28DCE
Copy CRC A8D28DCE
Copy OK

No errors occurred


AccurateRip summary

Track 1 accurately ripped (confidence 6) [71F6E10E] (AR v1)
Track 2 accurately ripped (confidence 6) [54FBF080] (AR v1)
Track 3 accurately ripped (confidence 6) [D054A586] (AR v1)
Track 4 accurately ripped (confidence 6) [CEB685C2] (AR v1)
Track 5 accurately ripped (confidence 6) [A7E5B158] (AR v1)
Track 6 accurately ripped (confidence 6) [FA67568C] (AR v1)
Track 7 accurately ripped (confidence 6) [0542FDBE] (AR v1)
Track 8 accurately ripped (confidence 6) [A8AE9F1D] (AR v1)

All tracks accurately ripped

End of status report

–– CUETools DB Plugin V2.1.3

[CTDB TOCID: JwpTTZxDttOkMo5RmfuUK0.KSzQ-] found, Submit result: JwpTTZxDttOkMo5RmfuUK0.KSzQ- has been confirmed
[fb7dd3b7] (6/6) Accurately ripped


==== Log checksum BDB20BBAFB096AAAD87A1A78058DD7A46184824A4787EFB32B77DDA296753FD4 ====

[CUETools log; Date: 06.06.2019 18:06:28; Version: 2.1.4]
[CTDB TOCID: JwpTTZxDttOkMo5RmfuUK0.KSzQ-] found.
Track | CTDB Status
1 | (3/3) Accurately ripped
2 | (3/3) Accurately ripped
3 | (3/3) Accurately ripped
4 | (3/3) Accurately ripped
5 | (3/3) Accurately ripped
6 | (3/3) Accurately ripped
7 | (3/3) Accurately ripped
8 | (3/3) Accurately ripped
[AccurateRip ID: 000feeef-006a3028-6e0bf508] found.
Track [ CRC | V2 ] Status
01 [71f6e10e|69a02d4a] (6+0/6) Accurately ripped
02 [54fbf080|5242d487] (6+0/6) Accurately ripped
03 [d054a586|63eadf5b] (6+0/6) Accurately ripped
04 [ceb685c2|40c3e0ee] (6+0/6) Accurately ripped
05 [a7e5b158|e67fc106] (6+0/6) Accurately ripped
06 [fa67568c|a09dfc2d] (6+0/6) Accurately ripped
07 [0542fdbe|a2823660] (6+0/6) Accurately ripped
08 [a8ae9f1d|0c339c5a] (6+0/6) Accurately ripped

Track Peak [ CRC32 ] [W/O NULL] [ LOG ]
– 100,0 [A8D28DCE] [3737E651] CRC32
01 100,0 [A939AE11] [9871E4D5]
02 100,0 [00140B5F] [FE3CC1C6]
03 100,0 [82C42E7D] [F62767FD]
04 100,0 [963BD795] [220FDF01]
05 99,9 [42276C3D] [FCA5617F]
06 100,0 [614C8C57] [F2B6C65D]
07 100,0 [DB0630E1] [E20134C2]
08 100,0 [4616E837] [9A67C681]

Lemonchill - 4 Albums (2009-2010)

Lemonchill - Journey Through An Electric Garden (2009)
EAC Rip | FLAC (image+.cue+log) - 262 MB | MP3 CBR 320 kbps (LAME 3.93) - 116 MB | Covers - 58 MB
Genre: Downtempo, Ambient | RAR 3% Rec. | Label: Cyberset (Cyber1049)

Tracklist:
01. Safe Passage (Intro)
02. Adam And Eve
03. En Larmes
04. Moonlight Sonata
05. Electric Waves Of Silence
06. Sublime
07. Subconscious Whispers
08. Subway Express
09. Journey Through An Electric Garden (Outro)

Total time: 49:13

Exact Audio Copy V0.99 prebeta 5 from 4. May 2009

EAC extraction logfile from 19. September 2010, 19:16

Lemonchill / Journey Through An Electric Garden

Used drive : Optiarc DVD RW AD-7200S Adapter: 1 ID: 0

Read mode : Secure
Utilize accurate stream : Yes
Defeat audio cache : Yes
Make use of C2 pointers : No

Read offset correction : 48
Overread into Lead-In and Lead-Out : No
Fill up missing offset samples with silence : Yes
Delete leading and trailing silent blocks : No
Null samples used in CRC calculations : Yes
Used interface : Native Win32 interface for Win NT & 2000

Used output format : User Defined Encoder
Selected bitrate : 768 kBit/s
Quality : High
Add ID3 tag : No
Command line compressor : C:\Program Files\Exact Audio Copy\FLAC\FLAC.EXE
Additional command line options : -8 -V %s


TOC of the extracted CD

Track | Start | Length | Start sector | End sector
––––––––––––––––––––––––––––-
1 | 0:00.00 | 1:44.16 | 0 | 7815
2 | 1:44.16 | 6:24.06 | 7816 | 36621
3 | 8:08.22 | 5:54.49 | 36622 | 63220
4 | 14:02.71 | 5:21.46 | 63221 | 87341
5 | 19:24.42 | 7:34.61 | 87342 | 121452
6 | 26:59.28 | 5:43.53 | 121453 | 147230
7 | 32:43.06 | 6:22.02 | 147231 | 175882
8 | 39:05.08 | 6:50.01 | 175883 | 206633
9 | 45:55.09 | 3:18.27 | 206634 | 221510


Range status and errors

Selected range

Filename D:\Lemonchill - Journey Through An Electric Garden.wav

Peak level 99.9 %
Range quality 100.0 %
Test CRC E052F9C8
Copy CRC E052F9C8
Copy OK

No errors occurred


AccurateRip summary

Track 1 accurately ripped (confidence 4) [E787FFD3]
Track 2 accurately ripped (confidence 4) [B5F7F546]
Track 3 accurately ripped (confidence 4) [080C6004]
Track 4 accurately ripped (confidence 4) [FD9B100E]
Track 5 accurately ripped (confidence 4) [CE9FB6D6]
Track 6 accurately ripped (confidence 4) [4121F80F]
Track 7 accurately ripped (confidence 4) [1A1AA79A]
Track 8 accurately ripped (confidence 4) [53295EC9]
Track 9 accurately ripped (confidence 4) [B569312E]

All tracks accurately ripped

End of status report

[CUETools log; Date: 06.06.2019 18:06:00; Version: 2.1.4]
[CTDB TOCID: GcN1UhLTBG6Gkd9mReQ6nMqXkeA-] found.
Track | CTDB Status
1 | (3/3) Accurately ripped
2 | (3/3) Accurately ripped
3 | (3/3) Accurately ripped
4 | (3/3) Accurately ripped
5 | (3/3) Accurately ripped
6 | (3/3) Accurately ripped
7 | (3/3) Accurately ripped
8 | (3/3) Accurately ripped
9 | (3/3) Accurately ripped
[AccurateRip ID: 00104ac1-007aedf4-780b8909] found.
Track [ CRC | V2 ] Status
01 [e787ffd3|d519af68] (6+0/6) Accurately ripped
02 [b5f7f546|a1bc9d5e] (6+0/6) Accurately ripped
03 [080c6004|d223d586] (6+0/6) Accurately ripped
04 [fd9b100e|6a9331eb] (6+0/6) Accurately ripped
05 [ce9fb6d6|8bdd657e] (6+0/6) Accurately ripped
06 [4121f80f|190c8d4c] (6+0/6) Accurately ripped
07 [1a1aa79a|cbef34a4] (6+0/6) Accurately ripped
08 [53295ec9|1fd87938] (6+0/6) Accurately ripped
09 [b569312e|fe5e00c5] (6+0/6) Accurately ripped

Track Peak [ CRC32 ] [W/O NULL] [ LOG ]
– 99,9 [E052F9C8] [51F56162] CRC32
01 85,6 [69046563] [7CFF1722]
02 99,9 [F921847D] [1236DE77]
03 99,8 [E85639C2] [EB2C3C2B]
04 99,8 [EDEA114A] [C20C3898]
05 95,6 [EE3CE4C2] [A932358C]
06 99,9 [2CAF578C] [14AC02A9]
07 98,4 [B3FC556D] [9EC66D97]
08 95,1 [CABAA723] [0ACAF2A6]
09 67,3 [94CDF6A7] [2734A936]

Lemonchill - 4 Albums (2009-2010)

Lemonchill - Conversations With God (2010)
EAC Rip | FLAC (image+.cue+log) - 388 MB | MP3 CBR 320 kbps (LAME 3.93) - 153 MB | Covers - 24 MB
Genre: Progressive Trance | RAR 3% Rec. | Label: Altar Records (ARCDA03)

Tracklist:
01. Electric Waves Of Silence (Hypnotizer Remix)
02. Kanji (Ramin Dash Remix)
03. En Larmes (Hi Profile Remix)
04. Electric Waves Of Silence (Feel Remix)
05. Reflections (Kota aka Ushikha Remix)
06. Missing Soul (Startil Remix)
07. Electric Waves Of Silence (Dynamic Bastards Remix)
08. Mantra (Cabeiri Remix)

Total time: 01:05:16

Exact Audio Copy V0.99 prebeta 5 from 4. May 2009

EAC extraction logfile from 4. December 2010, 8:09

Lemonchill / Conversations with god

Used drive : Optiarc DVD RW AD-7200S Adapter: 1 ID: 0

Read mode : Secure
Utilize accurate stream : Yes
Defeat audio cache : Yes
Make use of C2 pointers : No

Read offset correction : 48
Overread into Lead-In and Lead-Out : No
Fill up missing offset samples with silence : Yes
Delete leading and trailing silent blocks : No
Null samples used in CRC calculations : Yes
Used interface : Native Win32 interface for Win NT & 2000

Used output format : User Defined Encoder
Selected bitrate : 1024 kBit/s
Quality : High
Add ID3 tag : No
Command line compressor : C:\Program Files\Exact Audio Copy\FLAC\FLAC.EXE
Additional command line options : -T "DATE=%y" -T "GENRE=%m" -8 -V %s


TOC of the extracted CD

Track | Start | Length | Start sector | End sector
––––––––––––––––––––––––––––-
1 | 0:00.00 | 7:36.00 | 0 | 34199
2 | 7:36.00 | 8:34.00 | 34200 | 72749
3 | 16:10.00 | 6:51.32 | 72750 | 103606
4 | 23:01.32 | 7:06.34 | 103607 | 135590
5 | 30:07.66 | 8:59.37 | 135591 | 176052
6 | 39:07.28 | 8:27.29 | 176053 | 214106
7 | 47:34.57 | 7:45.24 | 214107 | 249005
8 | 55:20.06 | 9:55.44 | 249006 | 293674


Range status and errors

Selected range

Filename D:\Lemonchill - Conversations with god.wav

Peak level 98.4 %
Range quality 100.0 %
Test CRC E5B5C6CA
Copy CRC E5B5C6CA
Copy OK

No errors occurred


AccurateRip summary

Track 1 not present in database
Track 2 not present in database
Track 3 not present in database
Track 4 not present in database
Track 5 not present in database
Track 6 not present in database
Track 7 not present in database
Track 8 not present in database

None of the tracks are present in the AccurateRip database

End of status report

[CUETools log; Date: 06.06.2019 18:04:42; Version: 2.1.4]
[CTDB TOCID: l4KzNG__WXcvA0MDkK__tICx5bM-] found.
Track | CTDB Status
1 | (2/2) Accurately ripped
2 | (2/2) Accurately ripped
3 | (2/2) Accurately ripped
4 | (2/2) Accurately ripped
5 | (2/2) Accurately ripped
6 | (2/2) Accurately ripped
7 | (2/2) Accurately ripped
8 | (2/2) Accurately ripped
[AccurateRip ID: 0013840d-0082c188-770f4b08] found.
Track [ CRC | V2 ] Status
01 [c8e9528a|d99ae753] (1+1/3) Accurately ripped
02 [9e075ad1|7a6710a2] (1+1/3) Accurately ripped
03 [d86228d3|cd4921b9] (1+1/3) Accurately ripped
04 [bae55e55|dc1f4bb0] (1+1/3) Accurately ripped
05 [1db9fc28|81dbfcdc] (1+1/3) Accurately ripped
06 [ecff2b4a|a465400d] (1+1/3) Accurately ripped
07 [c33efc4d|aad47ae9] (1+1/3) Accurately ripped
08 [e158b030|2fab74ea] (1+1/3) Accurately ripped

Track Peak [ CRC32 ] [W/O NULL] [ LOG ]
– 98,4 [E5B5C6CA] [2A8DA44D] CRC32
01 98,3 [F13970BF] [1C8E4D87]
02 98,4 [0299FFB8] [1097ADA5]
03 98,3 [F46A0368] [53AC0C76]
04 98,2 [3D3C9D4B] [6BF1E8CC]
05 98,3 [E2BDF715] [7052F5E6]
06 98,4 [EAB10821] [72634C84]
07 98,3 [88F65B51] [21004154]
08 98,3 [9549643D] [A25D15E9]

Lemonchill - 4 Albums (2009-2010)

Lemonchill - Sleeping With Giants (2010)
EAC Rip | FLAC (image+.cue+log) - 318 MB | MP3 CBR 320 kbps (LAME 3.93) - 127 MB | Covers - 47 MB
Genre: Downtempo, Ambient | RAR 3% Rec. | Label: Ricochet Dream (RD056)

Tracklist:
01. Moonlight Sonata (Zero Cult rmx)
02. En larmes (Side Liner rmx)
03. Adam and Eve the Angels are Crying
04. Adam and Eve (Mindwave rmx)
05. Subconciusness Whispers (Terra Nine rmx)
06. En Larmes (Chronos rmx)
07. Subconciusness Whispers (Limbo rmx)
08. Sublime (Hol Baumann rmx)
09. Dragonfly (Steve Baltes of deep voices rmx)

Total time: 54:15

Exact Audio Copy V0.99 prebeta 5 from 4. May 2009

EAC extraction logfile from 7. November 2010, 22:24

Lemonchill / Sleeping With Giants

Used drive : Optiarc DVD RW AD-7200S Adapter: 1 ID: 0

Read mode : Secure
Utilize accurate stream : Yes
Defeat audio cache : Yes
Make use of C2 pointers : No

Read offset correction : 48
Overread into Lead-In and Lead-Out : No
Fill up missing offset samples with silence : Yes
Delete leading and trailing silent blocks : No
Null samples used in CRC calculations : Yes
Used interface : Native Win32 interface for Win NT & 2000

Used output format : User Defined Encoder
Selected bitrate : 1024 kBit/s
Quality : High
Add ID3 tag : No
Command line compressor : C:\Program Files\Exact Audio Copy\FLAC\FLAC.EXE
Additional command line options : -8 -V %s


TOC of the extracted CD

Track | Start | Length | Start sector | End sector
––––––––––––––––––––––––––––-
1 | 0:00.00 | 5:57.51 | 0 | 26825
2 | 5:57.51 | 7:25.71 | 26826 | 60271
3 | 13:23.47 | 3:57.43 | 60272 | 78089
4 | 17:21.15 | 4:06.51 | 78090 | 96590
5 | 21:27.66 | 5:49.08 | 96591 | 122773
6 | 27:16.74 | 4:53.02 | 122774 | 144750
7 | 32:10.01 | 7:23.54 | 144751 | 178029
8 | 39:33.55 | 7:40.66 | 178030 | 212595
9 | 47:14.46 | 7:00.50 | 212596 | 244145


Range status and errors

Selected range

Filename D:\Lemonchill - Sleeping With Giants.wav

Peak level 99.9 %
Range quality 100.0 %
Test CRC 6B7EB00B
Copy CRC 6B7EB00B
Copy OK

No errors occurred


AccurateRip summary

Track 1 not present in database
Track 2 not present in database
Track 3 not present in database
Track 4 not present in database
Track 5 not present in database
Track 6 not present in database
Track 7 not present in database
Track 8 not present in database
Track 9 not present in database

None of the tracks are present in the AccurateRip database

End of status report

[CUETools log; Date: 06.06.2019 18:07:02; Version: 2.1.4]
[CTDB TOCID: EFQjqGJOpzIQ6q1w26m1N5dAXUA-] found.
Track | CTDB Status
1 | (1/1) Accurately ripped
2 | (1/1) Accurately ripped
3 | (1/1) Accurately ripped
4 | (1/1) Accurately ripped
5 | (1/1) Accurately ripped
6 | (1/1) Accurately ripped
7 | (1/1) Accurately ripped
8 | (1/1) Accurately ripped
9 | (1/1) Accurately ripped
[AccurateRip ID: 0011c32c-0082989d-810cb709] found.
Track [ CRC | V2 ] Status
01 [0dac2491|f48039cc] (3+0/3) Accurately ripped
02 [db6ca952|5d4657ef] (3+0/3) Accurately ripped
03 [042c7ed5|7dc203a4] (3+0/3) Accurately ripped
04 [1452b6d6|9d335acc] (3+0/3) Accurately ripped
05 [956a0a8a|2fc54526] (3+0/3) Accurately ripped
06 [3364967a|0231b1b8] (3+0/3) Accurately ripped
07 [584fd014|04491d63] (3+0/3) Accurately ripped
08 [f6394087|956f2bba] (3+0/3) Accurately ripped
09 [dc824dc3|b39f072d] (3+0/3) Accurately ripped

Track Peak [ CRC32 ] [W/O NULL] [ LOG ]
– 99,9 [6B7EB00B] [9A1D8BEA] CRC32
01 93,7 [4ECAF5FD] [FFD8B195]
02 99,9 [E8AE80D7] [1837E1A5]
03 99,9 [80073F6F] [58B569EE]
04 70,5 [8B394889] [84AA9983]
05 92,1 [3A1A2B69] [05DBE290]
06 86,0 [E0CFD99C] [0A564533]
07 98,6 [E56D5745] [17F7F62A]
08 98,6 [8246206C] [EF3F8E3A]
09 91,9 [38C371C1] [2B516300]

Thanks to vostrik