Subcategories

Lenny Kravitz - 5 Album Set (2013) {5CD Box Set}

Posted By: popsakov
Lenny Kravitz - 5 Album Set (2013) {5CD Box Set}

Lenny Kravitz - 5 Album Set (2013) {5CD Box Set}
EAC Rip | FLAC (Img) + Cue + Log ~ 1,97 Gb | MP3 CBR320 ~ 863 Mb
Scans Included (JPG, 600 dpi) | RAR 5% Recovery
Rock / Funk Rock / Hard Rock / Alternative Rock / Neo Psychedelia / Neo Soul
EMI #50999 979151 2 6

Rock music in the 1980s had completely lost the gritty feel of earlier eras, until Lenny Kravitz rediscovered the magic formula. Kravitz's sonic template combined good old-fashioned rock & roll with glam, soul, and psychedelia, making him a massive success. He made a splash straight out of the gate with his album Let Love Rule. After that, he de-emphasized the flower-power aspects of his music and began moving toward a heavier rock sound. This progression brought him such huge hits as "Are You Gonna Go My Way" and a hard-rocking cover of the Guess Who's "American Woman." Along the way, his flamboyant image, model-like looks, and frequent acting roles made him a fixture in pop-music circles.

He won the Grammy Award for Best Male Rock Vocal Performance four years in a row from 1999 to 2002, breaking the record for most wins in that category as well as setting the record for most consecutive wins in one category by a male. He has been nominated for and won other awards, including American Music Awards, MTV Video Music Awards, Radio Music Awards, Brit Awards, and Blockbuster Entertainment Awards. He was also ranked number 93 on VH1's 100 Greatest Artists of Hard Rock.

***************

Lenny Kravitz - 5 Album Set (2013) {5CD Box Set}

Track List CD01 Lenny Kravitz - Let Love Rule (1989) {EMI #50999 979151 2 5}:

01. Sittin' On The Top Of The World [0:03:15.50]
02. Let Love Rule [0:05:42.17]
03. Freedom Train [0:02:50.60]
04. My Precious Love [0:05:15.53]
05. I Build This Garden For Us [0:06:17.25]
06. Fear [0:05:20.22]
07. Does Anybody Out There Even Care [0:03:42.45]
08. Mr. Cab Driver [0:03:50.58]
09. Rosemary [0:05:28.30]
10. Be [0:03:19.05]
11. Blues For Sister Someone [0:03:00.02]
12. Empty Hands [0:04:43.00]
13. Flower Chid [0:02:57.41]

Exact Audio Copy V1.3 from 2. September 2016

EAC extraction logfile from 28. March 2018, 23:32

Lenny Kravitz / Let Love Rule

Used drive : TSSTcorpCDDVDW SE-S084C Adapter: 0 ID: 0

Read mode : Secure
Utilize accurate stream : Yes
Defeat audio cache : Yes
Make use of C2 pointers : No

Read offset correction : 6
Overread into Lead-In and Lead-Out : No
Fill up missing offset samples with silence : Yes
Delete leading and trailing silent blocks : No
Null samples used in CRC calculations : Yes
Used interface : Installed external ASPI interface

Used output format : User Defined Encoder
Selected bitrate : 320 kBit/s
Quality : High
Add ID3 tag : No
Command line compressor : C:\Program Files (x86)\Exact Audio Copy\FLAC\FLAC.EXE
Additional command line options : -V -8 -T "Date=%year%" -T "Genre=%genre%" %source%


TOC of the extracted CD

Track | Start | Length | Start sector | End sector
––––––––––––––––––––––––––––-
1 | 0:00.33 | 3:15.50 | 33 | 14707
2 | 3:16.08 | 5:42.17 | 14708 | 40374
3 | 8:58.25 | 2:50.60 | 40375 | 53184
4 | 11:49.10 | 5:15.53 | 53185 | 76862
5 | 17:04.63 | 6:17.25 | 76863 | 105162
6 | 23:22.13 | 5:20.22 | 105163 | 129184
7 | 28:42.35 | 3:42.45 | 129185 | 145879
8 | 32:25.05 | 3:50.58 | 145880 | 163187
9 | 36:15.63 | 5:28.30 | 163188 | 187817
10 | 41:44.18 | 3:19.05 | 187818 | 202747
11 | 45:03.23 | 3:00.02 | 202748 | 216249
12 | 48:03.25 | 4:43.00 | 216250 | 237474
13 | 52:46.25 | 2:57.41 | 237475 | 250790


Range status and errors

Selected range

Filename D:\EAC\Lenny Kravitz - Let Love Rule.wav

Peak level 99.9 %
Extraction speed 4.4 X
Range quality 99.9 %
Test CRC 368F35DA
Copy CRC 368F35DA
Copy OK

No errors occurred


AccurateRip summary

Track 1 accurately ripped (confidence 2) [F980606D] (AR v2)
Track 2 accurately ripped (confidence 2) [FC062CCC] (AR v2)
Track 3 accurately ripped (confidence 2) [FD925A1E] (AR v2)
Track 4 accurately ripped (confidence 2) [7CC5D179] (AR v2)
Track 5 accurately ripped (confidence 2) [C2BE1A98] (AR v2)
Track 6 accurately ripped (confidence 2) [56808C73] (AR v2)
Track 7 accurately ripped (confidence 2) [D22D9B3A] (AR v2)
Track 8 accurately ripped (confidence 2) [03D0314C] (AR v2)
Track 9 accurately ripped (confidence 2) [EF34057D] (AR v2)
Track 10 accurately ripped (confidence 2) [BCE1BAC3] (AR v2)
Track 11 accurately ripped (confidence 2) [4ACD2199] (AR v2)
Track 12 accurately ripped (confidence 2) [955B45C6] (AR v2)
Track 13 accurately ripped (confidence 2) [70855F90] (AR v2)

All tracks accurately ripped

End of status report

–– CUETools DB Plugin V2.1.6

[CTDB TOCID: jSenJGVIUFVyfh4QENYMDjXawGs-] found
Submit result: jSenJGVIUFVyfh4QENYMDjXawGs- has been confirmed
Track | CTDB Status
1 | (1/1) Accurately ripped
2 | (1/1) Accurately ripped
3 | (1/1) Accurately ripped
4 | (1/1) Accurately ripped
5 | (1/1) Accurately ripped
6 | (1/1) Accurately ripped
7 | (1/1) Accurately ripped
8 | (1/1) Accurately ripped
9 | (1/1) Accurately ripped
10 | (1/1) Accurately ripped
11 | (1/1) Accurately ripped
12 | (1/1) Accurately ripped
13 | (1/1) Accurately ripped


==== Log checksum A9F069AF4CE2E9EB8E5D9782954EBBF8F226EC553DAA32EB7EF0BEA28824A929 ====

foobar2000 1.3.16 / Dynamic Range Meter 1.1.1
log date: 2018-03-30 00:58:46

––––––––––––––––––––––––––––––––––––––––
Analyzed: Lenny Kravitz / Let Love Rule
––––––––––––––––––––––––––––––––––––––––

DR Peak RMS Duration Track
––––––––––––––––––––––––––––––––––––––––
DR15 -1.47 dB -19.61 dB 3:16 01-Sittin' On The Top Of The World
DR13 -0.58 dB -16.07 dB 5:42 02-Let Love Rule
DR15 -0.59 dB -17.63 dB 2:51 03-Freedom Train
DR15 -0.01 dB -17.53 dB 5:16 04-My Precious Love
DR13 -0.92 dB -15.88 dB 6:17 05-I Build This Garden For Us
DR13 -0.04 dB -16.35 dB 5:20 06-Fear
DR13 -0.81 dB -16.41 dB 3:43 07-Does Anybody Out There Even Care
DR14 -0.71 dB -16.52 dB 3:51 08-Mr. Cab Driver
DR13 -1.69 dB -18.21 dB 5:28 09-Rosemary
DR13 -3.09 dB -18.21 dB 3:19 10-Be
DR13 -0.20 dB -16.07 dB 3:00 11-Blues For Sister Someone
DR13 -0.96 dB -17.41 dB 4:43 12-Empty Hands
DR12 -2.66 dB -16.36 dB 2:58 13-Flower Chid
––––––––––––––––––––––––––––––––––––––––

Number of tracks: 13
Official DR value: DR13

Samplerate: 44100 Hz
Channels: 2
Bits per sample: 16
Bitrate: 852 kbps
Codec: FLAC
================================================================================

[CUETools log; Date: 30.03.2018 0:59:10; Version: 2.1.6]
Pregap length 00:00:33.
[CTDB TOCID: jSenJGVIUFVyfh4QENYMDjXawGs-] found.
Track | CTDB Status
1 | (2/2) Accurately ripped
2 | (2/2) Accurately ripped
3 | (2/2) Accurately ripped
4 | (2/2) Accurately ripped
5 | (2/2) Accurately ripped
6 | (2/2) Accurately ripped
7 | (2/2) Accurately ripped
8 | (2/2) Accurately ripped
9 | (2/2) Accurately ripped
10 | (2/2) Accurately ripped
11 | (2/2) Accurately ripped
12 | (2/2) Accurately ripped
13 | (2/2) Accurately ripped
[AccurateRip ID: 001bd3ae-01160503-b00d0f0d] found.
Track [ CRC | V2 ] Status
01 [bd4f4ac0|f980606d] (0+2/2) Accurately ripped
02 [b151ccb5|fc062ccc] (0+2/2) Accurately ripped
03 [96c28632|fd925a1e] (0+2/2) Accurately ripped
04 [7812bb08|7cc5d179] (0+2/2) Accurately ripped
05 [0b1778fa|c2be1a98] (0+2/2) Accurately ripped
06 [792ce304|56808c73] (0+2/2) Accurately ripped
07 [b11cb456|d22d9b3a] (0+2/2) Accurately ripped
08 [f147c72d|03d0314c] (0+2/2) Accurately ripped
09 [07256466|ef34057d] (0+2/2) Accurately ripped
10 [43a5b99f|bce1bac3] (0+2/2) Accurately ripped
11 [27bb367f|4acd2199] (0+2/2) Accurately ripped
12 [09964897|955b45c6] (0+2/2) Accurately ripped
13 [a4be58cb|70855f90] (0+2/2) Accurately ripped

Track Peak [ CRC32 ] [W/O NULL] [ LOG ]
– 99,9 [368F35DA] [49F44E64] CRC32
01 84,4 [E0593417] [757E6A88]
02 93,5 [ED616B82] [3C2525F6]
03 93,4 [94288214] [E2923C4F]
04 99,9 [11C235A7] [C4AAB657]
05 89,9 [840356FB] [C46A28AA]
06 99,5 [43BA8023] [8DF398AB]
07 91,1 [8FA2E8D0] [B2B02BF8]
08 92,1 [63F88492] [E0F14B1D]
09 82,3 [361795B9] [D5B3B050]
10 70,0 [E55024A2] [DF2E2723]
11 97,7 [7835B031] [CA0B50ED]
12 89,5 [0862D4D0] [A58FFAC1]
13 73,6 [441E3B8B] [B730F9CE]

Lenny Kravitz - 5 Album Set (2013) {5CD Box Set}

Track List CD02 Lenny Kravitz - Mama Said (1991) {EMI #50999 979151 2 4}:

01. Fields of Joy [0:03:58.17]
02. Always on the Run [0:03:53.00]
03. Stand by My Woman [0:04:20.33]
04. It Ain't Over 'til It's Over [0:04:02.42]
05. More Than Anything in This World [0:03:28.20]
06. What Goes Around Comes Around [0:04:49.70]
07. The Difference Is Why [0:04:52.58]
08. Stop Draggin' Around [0:02:39.27]
09. Flowers for Zoë [0:02:43.48]
10. Fields of Joy (reprise) [0:03:59.07]
11. All I Ever Wanted [0:04:14.23]
12. When the Morning Turns to Night [0:02:59.27]
13. What the Fuck Are We Saying? [0:05:13.60]
14. Butterfly [0:01:50.45]

Exact Audio Copy V1.3 from 2. September 2016

EAC extraction logfile from 28. March 2018, 22:49

Lenny Kravitz / Mama Said

Used drive : TSSTcorpCDDVDW SE-S084C Adapter: 0 ID: 0

Read mode : Secure
Utilize accurate stream : Yes
Defeat audio cache : Yes
Make use of C2 pointers : No

Read offset correction : 6
Overread into Lead-In and Lead-Out : No
Fill up missing offset samples with silence : Yes
Delete leading and trailing silent blocks : No
Null samples used in CRC calculations : Yes
Used interface : Installed external ASPI interface

Used output format : User Defined Encoder
Selected bitrate : 320 kBit/s
Quality : High
Add ID3 tag : No
Command line compressor : C:\Program Files (x86)\Exact Audio Copy\FLAC\FLAC.EXE
Additional command line options : -V -8 -T "Date=%year%" -T "Genre=%genre%" %source%


TOC of the extracted CD

Track | Start | Length | Start sector | End sector
––––––––––––––––––––––––––––-
1 | 0:00.00 | 3:58.17 | 0 | 17866
2 | 3:58.17 | 3:53.00 | 17867 | 35341
3 | 7:51.17 | 4:20.33 | 35342 | 54874
4 | 12:11.50 | 4:02.42 | 54875 | 73066
5 | 16:14.17 | 3:28.20 | 73067 | 88686
6 | 19:42.37 | 4:49.70 | 88687 | 110431
7 | 24:32.32 | 4:52.58 | 110432 | 132389
8 | 29:25.15 | 2:39.27 | 132390 | 144341
9 | 32:04.42 | 2:43.48 | 144342 | 156614
10 | 34:48.15 | 3:59.07 | 156615 | 174546
11 | 38:47.22 | 4:14.23 | 174547 | 193619
12 | 43:01.45 | 2:59.27 | 193620 | 207071
13 | 46:00.72 | 5:13.60 | 207072 | 230606
14 | 51:14.57 | 1:50.45 | 230607 | 238901


Range status and errors

Selected range

Filename D:\EAC\Lenny Kravitz - Mama Said.wav

Peak level 100.0 %
Extraction speed 4.6 X
Range quality 100.0 %
Test CRC DF2A9DFA
Copy CRC DF2A9DFA
Copy OK

No errors occurred


AccurateRip summary

Track 1 accurately ripped (confidence 2) [9D2823D7] (AR v2)
Track 2 accurately ripped (confidence 2) [F200FB96] (AR v2)
Track 3 accurately ripped (confidence 2) [CE70725B] (AR v2)
Track 4 accurately ripped (confidence 2) [51DE5296] (AR v2)
Track 5 accurately ripped (confidence 2) [BD71DB99] (AR v2)
Track 6 accurately ripped (confidence 2) [6D180B9A] (AR v2)
Track 7 accurately ripped (confidence 2) [F23A50BE] (AR v2)
Track 8 accurately ripped (confidence 2) [D11E71BC] (AR v2)
Track 9 accurately ripped (confidence 2) [2DFB8CF5] (AR v2)
Track 10 accurately ripped (confidence 2) [215A8B32] (AR v2)
Track 11 accurately ripped (confidence 2) [CC3047AF] (AR v2)
Track 12 accurately ripped (confidence 2) [7A17F609] (AR v2)
Track 13 accurately ripped (confidence 2) [1824AB6E] (AR v2)
Track 14 accurately ripped (confidence 2) [9D490ACD] (AR v2)

All tracks accurately ripped

End of status report

–– CUETools DB Plugin V2.1.6

[CTDB TOCID: Y0xU4naXNxCs4F9Yn7SdEVuft9s-] found
Submit result: Y0xU4naXNxCs4F9Yn7SdEVuft9s- has been confirmed
Track | CTDB Status
1 | (87/88) Accurately ripped
2 | (86/88) Accurately ripped
3 | (86/88) Accurately ripped
4 | (86/88) Accurately ripped
5 | (85/88) Accurately ripped
6 | (86/88) Accurately ripped
7 | (87/88) Accurately ripped
8 | (86/88) Accurately ripped
9 | (87/88) Accurately ripped
10 | (87/88) Accurately ripped
11 | (86/88) Accurately ripped
12 | (86/88) Accurately ripped
13 | (86/88) Accurately ripped
14 | (86/88) Accurately ripped


==== Log checksum FB16B90C978184CECC5C68D75C95B8E24796B946545AB28315A4D141C11C1E68 ====

foobar2000 1.3.16 / Dynamic Range Meter 1.1.1
log date: 2018-03-30 01:01:18

––––––––––––––––––––––––––––––––––––––––
Analyzed: Lenny Kravitz / Mama Said
––––––––––––––––––––––––––––––––––––––––

DR Peak RMS Duration Track
––––––––––––––––––––––––––––––––––––––––
DR11 0.00 dB -13.34 dB 3:58 01-Fields of Joy
DR11 0.00 dB -12.25 dB 3:53 02-Always on the Run
DR11 0.00 dB -12.47 dB 4:20 03-Stand by My Woman
DR11 0.00 dB -12.72 dB 4:03 04-It Ain't Over 'til It's Over
DR10 -0.27 dB -13.95 dB 3:28 05-More Than Anything in This World
DR12 0.00 dB -13.17 dB 4:50 06-What Goes Around Comes Around
DR11 0.00 dB -12.14 dB 4:53 07-The Difference Is Why
DR11 0.00 dB -12.92 dB 2:39 08-Stop Draggin' Around
DR13 -2.60 dB -17.65 dB 2:44 09-Flowers for Zoe
DR11 0.00 dB -14.05 dB 3:59 10-Fields of Joy (reprise)
DR10 0.00 dB -13.07 dB 4:14 11-All I Ever Wanted
DR11 0.00 dB -13.24 dB 2:59 12-When the Morning Turns to Night
DR9 0.00 dB -10.32 dB 5:14 13-What the Fuck Are We Saying?
DR11 -4.39 dB -21.08 dB 1:51 14-Butterfly
––––––––––––––––––––––––––––––––––––––––

Number of tracks: 14
Official DR value: DR11

Samplerate: 44100 Hz
Channels: 2
Bits per sample: 16
Bitrate: 830 kbps
Codec: FLAC
================================================================================

[CUETools log; Date: 30.03.2018 1:01:31; Version: 2.1.6]
[CTDB TOCID: Y0xU4naXNxCs4F9Yn7SdEVuft9s-] found.
Track | CTDB Status
1 | (88/89) Accurately ripped
2 | (87/89) Accurately ripped
3 | (87/89) Accurately ripped
4 | (87/89) Accurately ripped
5 | (86/89) Accurately ripped
6 | (87/89) Accurately ripped
7 | (88/89) Accurately ripped
8 | (87/89) Accurately ripped
9 | (88/89) Accurately ripped
10 | (88/89) Accurately ripped
11 | (87/89) Accurately ripped
12 | (87/89) Accurately ripped
13 | (87/89) Accurately ripped
14 | (87/89) Accurately ripped
[AccurateRip ID: 001c5b3d-012ca6d7-cc0c710e] found.
Track [ CRC | V2 ] Status
01 [526751d2|9d2823d7] (000+002/105) Accurately ripped
02 [4e04e180|f200fb96] (000+002/104) Accurately ripped
03 [c14cc94f|ce70725b] (000+002/103) Accurately ripped
04 [91991b76|51de5296] (000+002/105) Accurately ripped
05 [8ac41fb9|bd71db99] (000+002/104) Accurately ripped
06 [23682e36|6d180b9a] (000+002/105) Accurately ripped
07 [cd420aca|f23a50be] (000+002/104) Accurately ripped
08 [d94712d5|d11e71bc] (000+002/104) Accurately ripped
09 [06eba011|2dfb8cf5] (000+002/104) Accurately ripped
10 [6c78c686|215a8b32] (000+002/104) Accurately ripped
11 [ca22a510|cc3047af] (000+002/103) Accurately ripped
12 [6f1c87df|7a17f609] (000+002/105) Accurately ripped
13 [a3d966a3|1824ab6e] (000+002/103) Accurately ripped
14 [db202c01|9d490acd] (000+002/102) Accurately ripped
Offsetted by 310:
01 [620a2b5c] (048/105) Accurately ripped
02 [9fcffd71] (047/104) Accurately ripped
03 [ff515d25] (046/103) Accurately ripped
04 [97bad106] (048/105) Accurately ripped
05 [250612d9] (047/104) Accurately ripped
06 [d5d44fe8] (048/105) Accurately ripped
07 [40a250b6] (048/104) Accurately ripped
08 [153e5291] (048/104) Accurately ripped
09 [b738364b] (048/104) Accurately ripped
10 [8ea51f3b] (047/104) Accurately ripped
11 [1219c261] (046/103) Accurately ripped
12 [c698018e] (048/105) Accurately ripped
13 [551e9ffb] (047/103) Accurately ripped
14 [e0f92411] (000/102) No match
Offsetted by 313:
01 [3c3435b9] (000/105) No match
02 [7a9dec30] (000/104) No match
03 [d807de35] (000/103) No match
04 [d5087bfd] (000/105) No match
05 [224829d0] (000/104) No match
06 [4503d7f9] (000/105) No match
07 [5a5731b0] (000/104) No match
08 [488c9d0b] (000/104) No match
09 [6bbc3b95] (000/104) No match
10 [867888f0] (000/104) No match
11 [6791453f] (000/103) No match
12 [5b976a22] (000/105) No match
13 [0277ecb4] (000/103) No match
14 [743bce2e] (047/102) Accurately ripped

Track Peak [ CRC32 ] [W/O NULL] [ LOG ]
– 99,9 [DF2A9DFA] [A224BA52] CRC32
01 99,9 [29742ACD] [B165D409]
02 99,9 [9FB6FB7A] [807C4CC0]
03 99,9 [23FD51A6] [427429EF]
04 99,9 [C450F527] [CDC21146]
05 96,9 [22A14A40] [6CF1E91C]
06 99,9 [BE0A5DED] [D94BBCB4]
07 99,9 [293775DA] [787782E0]
08 99,9 [970BCC39] [59A8ECF4]
09 74,1 [837E80CA] [833AFB8B]
10 99,9 [EE232D68] [7C2BB032]
11 99,9 [7F3BF43F] [C78A252C]
12 99,9 [F23A0BB6] [C14BF2B5]
13 99,9 [843614E7] [34226A5A]
14 60,3 [479CDBFD] [99943B95]

Lenny Kravitz - 5 Album Set (2013) {5CD Box Set}

Track List CD03 Lenny Kravitz - Are You Gonna Go My Way (1993) {EMI #50999 979151 2 3}:

01. Are You Gonna Go My Way [0:03:31.70]
02. Believe [0:04:54.30]
03. Come On and Love Me [0:03:54.23]
04. Heaven Help [0:03:11.15]
05. Just Be a Woman [0:03:48.47]
06. Is There Any Love in Your Heart [0:03:40.45]
07. Black Girl [0:03:44.63]
08. My Love [0:03:53.20]
09. Sugar [0:03:58.25]
10. Sister [0:07:04.55]
11. Eleutheria [0:04:52.57]

Exact Audio Copy V1.3 from 2. September 2016

EAC extraction logfile from 28. March 2018, 21:59

Lenny Kravitz / Are You Gonna Go My Way

Used drive : TSSTcorpCDDVDW SE-S084C Adapter: 0 ID: 0

Read mode : Secure
Utilize accurate stream : Yes
Defeat audio cache : Yes
Make use of C2 pointers : No

Read offset correction : 6
Overread into Lead-In and Lead-Out : No
Fill up missing offset samples with silence : Yes
Delete leading and trailing silent blocks : No
Null samples used in CRC calculations : Yes
Used interface : Installed external ASPI interface

Used output format : User Defined Encoder
Selected bitrate : 320 kBit/s
Quality : High
Add ID3 tag : No
Command line compressor : C:\Program Files (x86)\Exact Audio Copy\FLAC\FLAC.EXE
Additional command line options : -V -8 -T "Date=%year%" -T "Genre=%genre%" %source%


TOC of the extracted CD

Track | Start | Length | Start sector | End sector
––––––––––––––––––––––––––––-
1 | 0:00.00 | 3:31.70 | 0 | 15894
2 | 3:31.70 | 4:54.30 | 15895 | 37974
3 | 8:26.25 | 3:54.23 | 37975 | 55547
4 | 12:20.48 | 3:11.15 | 55548 | 69887
5 | 15:31.63 | 3:48.47 | 69888 | 87034
6 | 19:20.35 | 3:40.45 | 87035 | 103579
7 | 23:01.05 | 3:44.63 | 103580 | 120442
8 | 26:45.68 | 3:53.20 | 120443 | 137937
9 | 30:39.13 | 3:58.25 | 137938 | 155812
10 | 34:37.38 | 7:04.55 | 155813 | 187667
11 | 41:42.18 | 4:52.57 | 187668 | 209624


Range status and errors

Selected range

Filename D:\EAC\Lenny Kravitz - Are You Gonna Go My Way.wav

Peak level 100.0 %
Extraction speed 4.4 X
Range quality 100.0 %
Test CRC BA9E3673
Copy CRC BA9E3673
Copy OK

No errors occurred


AccurateRip summary

Track 1 accurately ripped (confidence 2) [AEB04D4B] (AR v2)
Track 2 accurately ripped (confidence 2) [F3C822D6] (AR v2)
Track 3 accurately ripped (confidence 2) [276E3713] (AR v2)
Track 4 accurately ripped (confidence 2) [E5B81774] (AR v2)
Track 5 accurately ripped (confidence 2) [7A06CA3F] (AR v2)
Track 6 accurately ripped (confidence 2) [DC90E1B4] (AR v2)
Track 7 accurately ripped (confidence 2) [76A0E72E] (AR v2)
Track 8 accurately ripped (confidence 2) [6777C7CD] (AR v2)
Track 9 accurately ripped (confidence 2) [CE29FC63] (AR v2)
Track 10 accurately ripped (confidence 2) [F6CBA894] (AR v2)
Track 11 accurately ripped (confidence 2) [2D22645B] (AR v2)

All tracks accurately ripped

End of status report

–– CUETools DB Plugin V2.1.6

[CTDB TOCID: UwlesHe7zvrc6fV.wtaDtmRIino-] found
Submit result: UwlesHe7zvrc6fV.wtaDtmRIino- has been confirmed
Track | CTDB Status
1 | (2/2) Accurately ripped
2 | (2/2) Accurately ripped
3 | (2/2) Accurately ripped
4 | (2/2) Accurately ripped
5 | (2/2) Accurately ripped
6 | (2/2) Accurately ripped
7 | (2/2) Accurately ripped
8 | (2/2) Accurately ripped
9 | (2/2) Accurately ripped
10 | (2/2) Accurately ripped
11 | (2/2) Accurately ripped


==== Log checksum C5D598E8E607075270AFEF1B2FF6C97C6A76F2C028B5A17BC1DE0DA71BE0CC35 ====

foobar2000 1.3.16 / Dynamic Range Meter 1.1.1
log date: 2018-03-30 01:04:08

––––––––––––––––––––––––––––––––––––––––
Analyzed: Lenny Kravitz / Are You Gonna Go My Way
––––––––––––––––––––––––––––––––––––––––

DR Peak RMS Duration Track
––––––––––––––––––––––––––––––––––––––––
DR11 0.00 dB -12.71 dB 3:32 01-Are You Gonna Go My Way
DR10 0.00 dB -13.34 dB 4:54 02-Believe
DR12 0.00 dB -13.42 dB 3:54 03-Come On and Love Me
DR11 0.00 dB -12.54 dB 3:11 04-Heaven Help
DR12 -1.10 dB -17.68 dB 3:49 05-Just Be a Woman
DR10 0.00 dB -11.92 dB 3:41 06-Is There Any Love in Your Heart
DR11 0.00 dB -13.03 dB 3:45 07-Black Girl
DR11 0.00 dB -12.63 dB 3:53 08-My Love
DR13 0.00 dB -13.96 dB 3:58 09-Sugar
DR11 0.00 dB -14.88 dB 7:05 10-Sister
DR13 0.00 dB -14.62 dB 4:53 11-Eleutheria
––––––––––––––––––––––––––––––––––––––––

Number of tracks: 11
Official DR value: DR11

Samplerate: 44100 Hz
Channels: 2
Bits per sample: 16
Bitrate: 892 kbps
Codec: FLAC
================================================================================

[CUETools log; Date: 30.03.2018 1:04:20; Version: 2.1.6]
[CTDB TOCID: UwlesHe7zvrc6fV.wtaDtmRIino-] found.
Track | CTDB Status
1 | (3/3) Accurately ripped
2 | (3/3) Accurately ripped
3 | (3/3) Accurately ripped
4 | (3/3) Accurately ripped
5 | (3/3) Accurately ripped
6 | (3/3) Accurately ripped
7 | (3/3) Accurately ripped
8 | (3/3) Accurately ripped
9 | (3/3) Accurately ripped
10 | (3/3) Accurately ripped
11 | (3/3) Accurately ripped
[AccurateRip ID: 001206e0-009d47fe-830aeb0b] found.
Track [ CRC | V2 ] Status
01 [c641ccbe|aeb04d4b] (0+2/2) Accurately ripped
02 [3a13b5b0|f3c822d6] (0+2/2) Accurately ripped
03 [cea99a9d|276e3713] (0+2/2) Accurately ripped
04 [614337a2|e5b81774] (0+2/2) Accurately ripped
05 [17536fc0|7a06ca3f] (0+2/2) Accurately ripped
06 [d19c8748|dc90e1b4] (0+2/2) Accurately ripped
07 [9d908df3|76a0e72e] (0+2/2) Accurately ripped
08 [bec6cfa3|6777c7cd] (0+2/2) Accurately ripped
09 [5d879052|ce29fc63] (0+2/2) Accurately ripped
10 [6e117858|f6cba894] (0+2/2) Accurately ripped
11 [9e3dfc15|2d22645b] (0+2/2) Accurately ripped

Track Peak [ CRC32 ] [W/O NULL] [ LOG ]
– 99,9 [BA9E3673] [F014201E] CRC32
01 99,9 [D6DEC06D] [3C876F9E]
02 99,9 [144AE016] [5EAD4899]
03 99,9 [CD00F6AB] [28D0EBFC]
04 99,9 [21E2ED4B] [AE92BED4]
05 88,1 [04C37DA5] [8760E06F]
06 99,9 [12B481E0] [6342BE08]
07 99,9 [5D585D1C] [89BB1F43]
08 99,9 [DF9B399D] [AEBFC103]
09 99,9 [155A4CD8] [9540CAB1]
10 99,9 [7330468C] [00C9E423]
11 99,9 [D62C4247] [8665D80B]

Lenny Kravitz - 5 Album Set (2013) {5CD Box Set}

Track List CD04 Lenny Kravitz - Circus (1995) {EMI #50999 979151 2 2}:

01. Rock And Roll is Dead [0:03:24.13]
02. Circus [0:04:48.05]
03. Beyond The 7th Sky [0:04:54.50]
04. Tunnel Vision [0:04:19.15]
05. Can't Get You Off My Mind [0:04:33.60]
06. Magdalene [0:03:48.45]
07. God Is Love [0:04:26.20]
08. Thin Ice [0:05:33.32]
09. Don't Go And Put A Bullet in Your Head [0:04:22.05]
10. In My Life Today [0:06:29.28]
11. The Resurrection [0:04:31.21]

Exact Audio Copy V1.3 from 2. September 2016

EAC extraction logfile from 28. March 2018, 21:05

Lenny Kravitz / Circus

Used drive : TSSTcorpCDDVDW SE-S084C Adapter: 0 ID: 0

Read mode : Secure
Utilize accurate stream : Yes
Defeat audio cache : Yes
Make use of C2 pointers : No

Read offset correction : 6
Overread into Lead-In and Lead-Out : No
Fill up missing offset samples with silence : Yes
Delete leading and trailing silent blocks : No
Null samples used in CRC calculations : Yes
Used interface : Installed external ASPI interface

Used output format : User Defined Encoder
Selected bitrate : 320 kBit/s
Quality : High
Add ID3 tag : No
Command line compressor : C:\Program Files (x86)\Exact Audio Copy\FLAC\FLAC.EXE
Additional command line options : -V -8 -T "Date=%year%" -T "Genre=%genre%" %source%


TOC of the extracted CD

Track | Start | Length | Start sector | End sector
––––––––––––––––––––––––––––-
1 | 0:00.00 | 3:24.13 | 0 | 15312
2 | 3:24.13 | 4:48.05 | 15313 | 36917
3 | 8:12.18 | 4:54.50 | 36918 | 59017
4 | 13:06.68 | 4:19.15 | 59018 | 78457
5 | 17:26.08 | 4:33.60 | 78458 | 98992
6 | 21:59.68 | 3:48.45 | 98993 | 116137
7 | 25:48.38 | 4:26.20 | 116138 | 136107
8 | 30:14.58 | 5:33.32 | 136108 | 161114
9 | 35:48.15 | 4:22.05 | 161115 | 180769
10 | 40:10.20 | 6:29.28 | 180770 | 209972
11 | 46:39.48 | 4:31.21 | 209973 | 230318


Range status and errors

Selected range

Filename D:\EAC\Lenny Kravitz - Circus.wav

Peak level 100.0 %
Extraction speed 2.8 X
Range quality 100.0 %
Test CRC 65E1003E
Copy CRC 65E1003E
Copy OK

No errors occurred


AccurateRip summary

Track 1 accurately ripped (confidence 1) [0487BDCF] (AR v2)
Track 2 accurately ripped (confidence 1) [9427FDBD] (AR v2)
Track 3 accurately ripped (confidence 1) [0081232D] (AR v2)
Track 4 accurately ripped (confidence 1) [7F066A98] (AR v2)
Track 5 accurately ripped (confidence 1) [70A5E7A3] (AR v2)
Track 6 accurately ripped (confidence 1) [C926A3FD] (AR v2)
Track 7 accurately ripped (confidence 1) [BA315C77] (AR v2)
Track 8 accurately ripped (confidence 1) [5CFEA8D4] (AR v2)
Track 9 accurately ripped (confidence 1) [82A63599] (AR v2)
Track 10 accurately ripped (confidence 1) [78C5991E] (AR v2)
Track 11 accurately ripped (confidence 1) [DA7B210E] (AR v2)

All tracks accurately ripped

End of status report

–– CUETools DB Plugin V2.1.6

[CTDB TOCID: 7YQCmjBFkzffpGffVSCibWKK1vc-] found
Submit result: 7YQCmjBFkzffpGffVSCibWKK1vc- has been confirmed
Track | CTDB Status
1 | (2/2) Accurately ripped
2 | (2/2) Accurately ripped
3 | (2/2) Accurately ripped
4 | (2/2) Accurately ripped
5 | (2/2) Accurately ripped
6 | (2/2) Accurately ripped
7 | (2/2) Accurately ripped
8 | (2/2) Accurately ripped
9 | (2/2) Accurately ripped
10 | (2/2) Accurately ripped
11 | (2/2) Accurately ripped


==== Log checksum DD4340D693562795E1BD58BD65C2ECD07A011F2FCA4527969DAC3C9AA29F1D0A ====

foobar2000 1.3.16 / Dynamic Range Meter 1.1.1
log date: 2018-03-30 01:06:49

––––––––––––––––––––––––––––––––––––––––
Analyzed: Lenny Kravitz / Circus
––––––––––––––––––––––––––––––––––––––––

DR Peak RMS Duration Track
––––––––––––––––––––––––––––––––––––––––
DR9 0.00 dB -10.76 dB 3:24 01-Rock And Roll is Dead
DR10 0.00 dB -11.42 dB 4:48 02-Circus
DR9 -0.05 dB -10.96 dB 4:55 03-Beyond The 7th Sky
DR10 0.00 dB -11.68 dB 4:19 04-Tunnel Vision
DR11 0.00 dB -12.55 dB 4:34 05-Can't Get You Off My Mind
DR10 0.00 dB -10.76 dB 3:49 06-Magdalene
DR11 -0.75 dB -13.72 dB 4:26 07-God Is Love
DR8 0.00 dB -10.35 dB 5:33 08-Thin Ice
DR11 0.00 dB -12.24 dB 4:22 09-Don't Go And Put A Bullet in Your Head
DR8 0.00 dB -10.46 dB 6:29 10-In My Life Today
DR9 0.00 dB -11.53 dB 4:31 11-The Resurrection
––––––––––––––––––––––––––––––––––––––––

Number of tracks: 11
Official DR value: DR10

Samplerate: 44100 Hz
Channels: 2
Bits per sample: 16
Bitrate: 922 kbps
Codec: FLAC
================================================================================

[CUETools log; Date: 30.03.2018 1:07:08; Version: 2.1.6]
[CTDB TOCID: 7YQCmjBFkzffpGffVSCibWKK1vc-] found.
Track | CTDB Status
1 | (3/3) Accurately ripped
2 | (3/3) Accurately ripped
3 | (3/3) Accurately ripped
4 | (3/3) Accurately ripped
5 | (3/3) Accurately ripped
6 | (3/3) Accurately ripped
7 | (3/3) Accurately ripped
8 | (3/3) Accurately ripped
9 | (3/3) Accurately ripped
10 | (3/3) Accurately ripped
11 | (3/3) Accurately ripped
[AccurateRip ID: 00143073-00b0f3fd-7d0bfe0b] found.
Track [ CRC | V2 ] Status
01 [129e87bd|0487bdcf] (0+1/1) Accurately ripped
02 [d8a768e1|9427fdbd] (0+1/1) Accurately ripped
03 [1129c183|0081232d] (0+1/1) Accurately ripped
04 [df18077b|7f066a98] (0+1/1) Accurately ripped
05 [41c50db3|70a5e7a3] (0+1/1) Accurately ripped
06 [5c49d89c|c926a3fd] (0+1/1) Accurately ripped
07 [5c751e42|ba315c77] (0+1/1) Accurately ripped
08 [c1261f06|5cfea8d4] (0+1/1) Accurately ripped
09 [8dc98062|82a63599] (0+1/1) Accurately ripped
10 [2b9e89d3|78c5991e] (0+1/1) Accurately ripped
11 [8f1c8149|da7b210e] (0+1/1) Accurately ripped

Track Peak [ CRC32 ] [W/O NULL] [ LOG ]
– 99,9 [65E1003E] [DBA186E0] CRC32
01 99,9 [EC223239] [40460BD7]
02 99,9 [F9070FAA] [D0B3EB75]
03 99,3 [5F3BFA86] [23BB0437]
04 99,9 [E12C827A] [CA3E3662]
05 99,9 [29B75FAD] [C7992D3B]
06 99,9 [3E5D5BBD] [0A5F58A1]
07 91,7 [B5D5C462] [7FB98273]
08 99,9 [558014F5] [F6D67F57]
09 99,9 [A966CB4C] [CAD73C95]
10 99,9 [5D5349B0] [07AF9B0A]
11 99,9 [6C191BAB] [0F62C5EC]

Lenny Kravitz - 5 Album Set (2013) {5CD Box Set}

Track List CD05 Lenny Kravitz - 5 (1998) {EMI #50999 979151 2 1}:

01. Live [0:05:11.05]
02. Supersoulfighter [0:04:58.68]
03. I Belong To You [0:04:17.35]
04. Black Velveteen [0:04:48.60]
05. If You Can't Say No [0:05:17.25]
06. Thinking Of You [0:06:23.72]
07. Take Time [0:04:31.65]
08. Fly Away [0:03:41.30]
09. It's Your Life [0:05:02.53]
10. Straight Cold Player [0:04:19.37]
11. Little Girl's Eyes [0:07:44.70]
12. You're My Favor [0:03:48.40]
13. Can We Find A Reason [0:06:27.18]

Exact Audio Copy V1.3 from 2. September 2016

EAC extraction logfile from 25. March 2018, 20:20

Lenny Kravitz / 5

Used drive : TSSTcorpCDDVDW SE-S084C Adapter: 0 ID: 0

Read mode : Secure
Utilize accurate stream : Yes
Defeat audio cache : Yes
Make use of C2 pointers : No

Read offset correction : 6
Overread into Lead-In and Lead-Out : No
Fill up missing offset samples with silence : Yes
Delete leading and trailing silent blocks : No
Null samples used in CRC calculations : Yes
Used interface : Installed external ASPI interface

Used output format : User Defined Encoder
Selected bitrate : 320 kBit/s
Quality : High
Add ID3 tag : No
Command line compressor : C:\Program Files (x86)\Exact Audio Copy\FLAC\FLAC.EXE
Additional command line options : -V -8 -T "Date=%year%" -T "Genre=%genre%" %source%


TOC of the extracted CD

Track | Start | Length | Start sector | End sector
––––––––––––––––––––––––––––-
1 | 0:00.00 | 5:11.05 | 0 | 23329
2 | 5:11.05 | 4:58.68 | 23330 | 45747
3 | 10:09.73 | 4:17.35 | 45748 | 65057
4 | 14:27.33 | 4:48.60 | 65058 | 86717
5 | 19:16.18 | 5:17.25 | 86718 | 110517
6 | 24:33.43 | 6:23.72 | 110518 | 139314
7 | 30:57.40 | 4:31.65 | 139315 | 159704
8 | 35:29.30 | 3:41.30 | 159705 | 176309
9 | 39:10.60 | 5:02.53 | 176310 | 199012
10 | 44:13.38 | 4:19.37 | 199013 | 218474
11 | 48:33.00 | 7:44.70 | 218475 | 253344
12 | 56:17.70 | 3:48.40 | 253345 | 270484
13 | 60:06.35 | 6:27.18 | 270485 | 299527


Range status and errors

Selected range

Filename D:\EAC\Lenny Kravitz - 5.wav

Peak level 99.8 %
Extraction speed 4.8 X
Range quality 100.0 %
Test CRC F2AF9BBD
Copy CRC F2AF9BBD
Copy OK

No errors occurred


AccurateRip summary

Track 1 accurately ripped (confidence 1) [152ACF05] (AR v2)
Track 2 accurately ripped (confidence 1) [BE0B8E43] (AR v2)
Track 3 accurately ripped (confidence 1) [029831E5] (AR v2)
Track 4 accurately ripped (confidence 1) [77781711] (AR v2)
Track 5 accurately ripped (confidence 1) [FB51BE3F] (AR v2)
Track 6 accurately ripped (confidence 1) [A4C6DFE3] (AR v2)
Track 7 accurately ripped (confidence 1) [E2483B82] (AR v2)
Track 8 accurately ripped (confidence 1) [EE78BA76] (AR v2)
Track 9 accurately ripped (confidence 1) [54C9667D] (AR v2)
Track 10 accurately ripped (confidence 1) [FB9FE795] (AR v2)
Track 11 accurately ripped (confidence 1) [6D97F08A] (AR v2)
Track 12 accurately ripped (confidence 1) [D1A6CFDC] (AR v2)
Track 13 accurately ripped (confidence 1) [BA218EAA] (AR v2)

All tracks accurately ripped

End of status report

–– CUETools DB Plugin V2.1.6

[CTDB TOCID: x54BPxGOosedKTSZ35gkV59_YAQ-] found
Submit result: x54BPxGOosedKTSZ35gkV59_YAQ- has been confirmed
Track | CTDB Status
1 | (2/2) Accurately ripped
2 | (2/2) Accurately ripped
3 | (2/2) Accurately ripped
4 | (2/2) Accurately ripped
5 | (2/2) Accurately ripped
6 | (2/2) Accurately ripped
7 | (2/2) Accurately ripped
8 | (2/2) Accurately ripped
9 | (2/2) Accurately ripped
10 | (2/2) Accurately ripped
11 | (2/2) Accurately ripped
12 | (2/2) Accurately ripped
13 | (2/2) Accurately ripped


==== Log checksum A8C03FFA3AC423344212B024F46E31B5E4A6DA1C8CE6C3072898F8427CC59FB7 ====

foobar2000 1.3.16 / Dynamic Range Meter 1.1.1
log date: 2018-03-30 01:10:05

––––––––––––––––––––––––––––––––––––––––
Analyzed: Lenny Kravitz / 5
––––––––––––––––––––––––––––––––––––––––

DR Peak RMS Duration Track
––––––––––––––––––––––––––––––––––––––––
DR9 -0.01 dB -9.77 dB 5:11 01-Live
DR7 -0.01 dB -8.64 dB 4:59 02-Supersoulfighter
DR8 -0.09 dB -9.86 dB 4:17 03-I Belong To You
DR6 -0.01 dB -7.53 dB 4:49 04-Black Velveteen
DR10 -0.01 dB -11.25 dB 5:17 05-If You Can't Say No
DR8 -0.01 dB -9.06 dB 6:24 06-Thinking Of You
DR7 -0.01 dB -9.34 dB 4:32 07-Take Time
DR8 -0.01 dB -8.74 dB 3:41 08-Fly Away
DR8 -0.01 dB -9.77 dB 5:03 09-It's Your Life
DR9 -0.01 dB -10.69 dB 4:19 10-Straight Cold Player
DR7 -0.01 dB -9.43 dB 7:45 11-Little Girl's Eyes
DR7 -0.01 dB -8.97 dB 3:49 12-You're My Favor
DR7 -0.01 dB -11.08 dB 6:27 13-Can We Find A Reason
––––––––––––––––––––––––––––––––––––––––

Number of tracks: 13
Official DR value: DR8

Samplerate: 44100 Hz
Channels: 2
Bits per sample: 16
Bitrate: 914 kbps
Codec: FLAC
================================================================================

[CUETools log; Date: 30.03.2018 1:10:24; Version: 2.1.6]
[CTDB TOCID: x54BPxGOosedKTSZ35gkV59_YAQ-] found.
Track | CTDB Status
1 | (3/3) Accurately ripped
2 | (3/3) Accurately ripped
3 | (3/3) Accurately ripped
4 | (3/3) Accurately ripped
5 | (3/3) Accurately ripped
6 | (3/3) Accurately ripped
7 | (3/3) Accurately ripped
8 | (3/3) Accurately ripped
9 | (3/3) Accurately ripped
10 | (3/3) Accurately ripped
11 | (3/3) Accurately ripped
12 | (3/3) Accurately ripped
13 | (3/3) Accurately ripped
[AccurateRip ID: 001f3e3c-01392a8e-bc0f990d] found.
Track [ CRC | V2 ] Status
01 [8615523a|152acf05] (0+1/1) Accurately ripped
02 [dbdbdfd7|be0b8e43] (0+1/1) Accurately ripped
03 [1d5174ee|029831e5] (0+1/1) Accurately ripped
04 [772faf7d|77781711] (0+1/1) Accurately ripped
05 [6509ae28|fb51be3f] (0+1/1) Accurately ripped
06 [63761604|a4c6dfe3] (0+1/1) Accurately ripped
07 [69bdd23b|e2483b82] (0+1/1) Accurately ripped
08 [eb18bb49|ee78ba76] (0+1/1) Accurately ripped
09 [9c997c2e|54c9667d] (0+1/1) Accurately ripped
10 [115c3476|fb9fe795] (0+1/1) Accurately ripped
11 [709448f9|6d97f08a] (0+1/1) Accurately ripped
12 [56c8ab30|d1a6cfdc] (0+1/1) Accurately ripped
13 [02f69165|ba218eaa] (0+1/1) Accurately ripped

Track Peak [ CRC32 ] [W/O NULL] [ LOG ]
– 99,8 [F2AF9BBD] [1C6D0003] CRC32
01 99,8 [A1E2FD59] [B226C832]
02 99,8 [F4CFF086] [3B0E3CE8]
03 98,9 [9AB7951B] [776D7C2B]
04 99,8 [DB52DA6F] [7DD04514]
05 99,8 [F86A7922] [D19AF435]
06 99,8 [1441CC60] [4F1DEBD0]
07 99,8 [E371D380] [2C8293D5]
08 99,8 [21D5746C] [10A30F58]
09 99,8 [73E5EE3E] [A729CFBB]
10 99,8 [04BEDB94] [F14E6697]
11 99,8 [704B15BC] [B47F1382]
12 99,8 [F6B8E031] [4AF0C016]
13 99,8 [91E30511] [EEB986CA]

Lenny Kravitz - 5 Album Set (2013) {5CD Box Set}

Lenny Kravitz - 5 Album Set (2013) {5CD Box Set}

All thanks go to salernitana

>>> My Blog <<<

Download from icerbox.com: