Subcategories

Lenny Kravitz - Acoustic (1994) "MTV Unplugged" **NEW REPOST**

Posted By: flac jacket
Lenny Kravitz - Acoustic (1994) "MTV Unplugged" **NEW REPOST**

Lenny Kravitz - Acoustic (1994) "MTV Unplugged"
EAC Secure Rip | FLAC (Image + Cue + Log) Complete Scans (Jpeg 600 dpi) - 581 MB | MP3 (CBR320 Kbps) - 134 MB
Rock, Hard Rock, Acoustic | Kiss The Stone | KTS 332 | 54:37 minutes | 5% WinRar Recovery | Hosted on: Uploaded & FilePost
Rare Unofficial Release

Lenny Kravitz and his band performing live at Sony Music Studios in New York for a taping of MTV Unplugged on April 14, 1994. This is an excellent soundboard recording and could be officially released as is.

Exact Audio Copy V1.0 beta 2 from 29. April 2011

EAC extraction logfile from 16. February 2013, 14:58

Lenny Kravitz / Acoustic

Used drive : HL-DT-STDVDRAM GH60N Adapter: 0 ID: 1

Read mode : Secure
Utilize accurate stream : Yes
Defeat audio cache : Yes
Make use of C2 pointers : No

Read offset correction : 667
Overread into Lead-In and Lead-Out : No
Fill up missing offset samples with silence : Yes
Delete leading and trailing silent blocks : No
Null samples used in CRC calculations : Yes
Used interface : Native Win32 interface for Win NT & 2000

Used output format : User Defined Encoder
Selected bitrate : 1024 kBit/s
Quality : High
Add ID3 tag : No
Command line compressor : C:\Program Files (x86)\Exact Audio Copy\Flac\flac.exe
Additional command line options : -V -5 -T "artist=%albumartist%" -T "title=%title%" -T "album=%albumtitle%" -T "date=%year%" -T "genre=%genre%" -T

"tracknumber=%tracknr%" %source%


TOC of the extracted CD

Track | Start | Length | Start sector | End sector
––––––––––––––––––––––––––––-
1 | 0:00.33 | 6:26.50 | 33 | 29032
2 | 6:27.08 | 5:13.50 | 29033 | 52557
3 | 11:40.58 | 5:36.50 | 52558 | 77807
4 | 17:17.33 | 4:06.00 | 77808 | 96257
5 | 21:23.33 | 7:15.50 | 96258 | 128932
6 | 28:39.08 | 3:57.12 | 128933 | 146719
7 | 32:36.20 | 5:54.13 | 146720 | 173282
8 | 38:30.33 | 6:43.00 | 173283 | 203507
9 | 45:13.33 | 3:26.25 | 203508 | 218982
10 | 48:39.58 | 5:57.50 | 218983 | 245807


Range status and errors

Selected range

Filename C:\EAC\Lenny Kravitz - (1994) Acoustic\Lenny Kravitz - Acoustic.wav

Peak level 100.0 %
Extraction speed 1.7 X
Range quality 100.0 %
Test CRC B0D37288
Copy CRC B0D37288
Copy OK

No errors occurred


AccurateRip summary

Track 1 accurately ripped (confidence 3) [60B9ABEB] (AR v1)
Track 2 accurately ripped (confidence 3) [5021A589] (AR v1)
Track 3 accurately ripped (confidence 3) [D378EB95] (AR v1)
Track 4 accurately ripped (confidence 3) [CBDD0A35] (AR v1)
Track 5 accurately ripped (confidence 3) [781B4DB7] (AR v1)
Track 6 accurately ripped (confidence 3) [FFC2A5ED] (AR v1)
Track 7 accurately ripped (confidence 3) [20721CC3] (AR v1)
Track 8 accurately ripped (confidence 3) [01175C3A] (AR v1)
Track 9 accurately ripped (confidence 3) [807B97F5] (AR v1)
Track 10 accurately ripped (confidence 3) [B1B9C56F] (AR v1)

All tracks accurately ripped

End of status report

==== Log checksum ED63265E82343BC3CB85E2844018D830CC7440627E7D6D246F5C6207D3F86A39 ====


Track Listing:

01. Are You Gonna Go My Way
02. Believe
03. Rosemary
04. Just Be A Woman
05. Sister
06. Always On The Run
07. My Precious Love
08. Let Love Rule
09. Are You Gonna Go My Way (Bonus Track)
10. Always On The Run (Bonus Track)


Tracks 1-8 recorded Sony Music Studios, New York City, New York on April 14, 1994
Tracks 9-10 recorded Daytona Beach, Florida for MTV Spring Break, 1993

CD Released: 1994


foobar2000 1.1.7 / Dynamic Range Meter 1.1.0
log date: 2013-02-20 23:27:18

––––––––––––––––––––––––––––––––––––––––
Analyzed: Lenny Kravitz / Acoustic
––––––––––––––––––––––––––––––––––––––––

DR Peak RMS Duration Track
––––––––––––––––––––––––––––––––––––––––
DR15 -0.83 dB -17.60 dB 6:27 01-Are You Gonna Go My Way
DR14 -0.68 dB -16.09 dB 5:14 02-Believe
DR14 -0.06 dB -16.74 dB 5:37 03-Rosemary
DR15 -1.69 dB -19.41 dB 4:06 04-Just Be A Woman
DR14 -0.36 dB -18.45 dB 7:16 05-Sister
DR14 -0.56 dB -16.39 dB 3:57 06-Always On The Run
DR14 0.00 dB -16.50 dB 5:54 07-My Precious Love
DR12 -0.38 dB -14.56 dB 6:43 08-Let Love Rule
DR12 0.00 dB -13.62 dB 3:26 09-Are You Gonna Go My Way (Bonus Track)
DR12 0.00 dB -13.05 dB 5:58 10-Always On The Run (Bonus Track)
––––––––––––––––––––––––––––––––––––––––

Number of tracks: 10
Official DR value: DR14

Samplerate: 44100 Hz
Channels: 2
Bits per sample: 16
Bitrate: 884 kbps
Codec: FLAC
================================================================================

Lenny Kravitz - Acoustic (1994) "MTV Unplugged" **NEW REPOST**

Ripped and Scanned from the Stadium Studios Library February 2013
5% WinRar Recovery