Tags
Language
Tags

Leon Haywood - Back To Say (1973) + Keep It In The Family (1974) 2 CDs, Expanded Remastered 2011

Posted By: Designol
Leon Haywood - Back To Say (1973) + Keep It In The Family (1974) 2 CDs, Expanded Remastered 2011

Leon Haywood - Back To Say (1973) + Keep It In The Family (1974)
2 CDs, Expanded Remastered 2011, 2 Albums + Singles
EAC | FLAC | Tracks (Cue&Log) ~ 639 Mb | Mp3 (CBR320) ~ 256 Mb | Scans included
Soul, Funk | Label: Shout! Records | # SHOUT D71 | Time: 01:34:09

Digitally remastered two CD set containing a pair of albums (plus bonus tracks) from the R&B/Soul vocalist. When Leon Haywood soared into the R&B Top 20 with Keep It In The Family in 1974, it marked the breakthrough for this singer and musician who had spent the previous decade paying his dues working in the road bands of Sam Cooke and Big Jay McNeely, and achieving minor solo success with 45s on Imperial and Decca. Leon reaped his reward on joining 20th Century Records at the birth of the Dance Music era in the mid -'70s as his R&B hit singles crossed over into the Hot 100, inspiring the release of two notable albums, Back To Stay and Keep It In the Family. The bonus tracks include a selection of contemporary hit singles and their b-sides on 20th Century.

Soul/funk journeyman Leon Haywood periodically dented the charts in the 1970s with hits that tapped into the grooves and musical hooks of the day's trends. An accomplished songwriter and arranger, Haywood never pretended to be an innovator, and his hits are cheerful derivations of '70s midtempo funk and romantic ballads, usually embellished by smooth string charts. His best material recalled the late-'60s/early-'70s Motown sound; on the slower material in particular, his vocals bore a resemblance to those of Marvin Gaye.

Haywood's roots extend way further back than the '70s; he toured and recorded with R&B saxophonist Big Jay McNeely's band (which also backed Sam Cooke on the road) in the early '60s. In the mid-'60s, he had his first chart entry with "She's with Her Other Love" on Imperial. In 1967, he had a solid R&B hit (and small pop one) with "It's Got to Be Mellow," whose commercial soul sound betrayed his Motown influence.

He didn't come into his own as a solo artist until the mid-'70s, when he had big R&B hits with "Strokin'," "Come and Get Yourself Some," and "Keep It in the Family." His biggest single, "I Want'a Do Something Freaky to You" (with orgasmic female gasps and moans that made it pretty clear what "freaky" really meant), crossed over to the Top 20 pop listings. The disco-ish "Don't Push It Don't Force It" was his biggest splash, making number two R&B in 1980. After the mid-'80s, he eased out of the record business into business ventures; in the 1990s, he produced blues albums by Jimmy McCracklin and others on his own EveJim label.

Review by Richie Unterberger

Leon Haywood - Back To Say (1973) + Keep It In The Family (1974) 2 CDs, Expanded Remastered 2011



Tracklist:

CD1 (45:40)

Singles:

01. I Wanta Do Something Freaky To You (3:23)
02. I Know What Love Is (3:15)
03. Believe Half Of What You See (And None Of What You Hear) (2:44)
04. Come And Get Yourself Some (3:13)

Back To Say (1973):

05. La La Song (3:33)
06. Sweet Loving Pair (3:18)
07. Show Me That You Care (3:26)
08. Let Them Talk (2:56)
09. Fair Warnin' (2:45)
10. One Way Ticket To Loveland (3:00)
11. Make Me Yours (3:03)
12. Long As There's You (I Got Love) (7:52)
13. There Ain't Enough Hate Around (To Make Me Turn Around) (3:12)


CD2 (48:29)

Singles:

01. Don't Push It Don't Force It (Let It Happen Naturally) (3:31)
02. Who You Been Giving It Up To (2:50)
03. Just Your Fool (3:28)
04. Consider The Source (3:55)

Keep It In The Family (1974):

05. Keep It In The Family (2:41)
06. Sugar Lump (2:41)
07. That Sweet Woman Of Mine (3:45)
08. The Day I Laid Eyes On You (2:38)
09. When It Comes Down On You In The Middle Of The Night (4:20)
10. A Hundred Pounds Of Clay (2:58)
11. Long As There's You (I Got Love) (8:04)
12. B.M.F. Beautiful (3:27)
13. You'll Never Walk Alone (4:11)


Exact Audio Copy V1.0 beta 1 from 15. November 2010

EAC extraction logfile from 30. March 2011, 14:24

Leon Haywood / Back To Say

Used drive : Optiarc DVD RW AD-7590S Adapter: 2 ID: 0

Read mode : Secure
Utilize accurate stream : Yes
Defeat audio cache : Yes
Make use of C2 pointers : No

Read offset correction : 48
Overread into Lead-In and Lead-Out : No
Fill up missing offset samples with silence : Yes
Delete leading and trailing silent blocks : No
Null samples used in CRC calculations : Yes
Used interface : Native Win32 interface for Win NT & 2000
Gap handling : Appended to previous track

Used output format : User Defined Encoder
Selected bitrate : 768 kBit/s
Quality : High
Add ID3 tag : No
Command line compressor : C:\Program Files\Exact Audio Copy\Flac\flac.exe
Additional command line options : -8 -V -T "ARTIST=%a" -T "TITLE=%t" -T "ALBUM=%g" -T "DATE=%y" -T "TRACKNUMBER=%n" -T "TOTALTRACKS=%x" -T "GENRE=%m" -T "ALBUMARTIST=%v" -T "ALBUM ARTIST=%v" -T "COMMENT=EAC Secure Mode, Test & Copy, AccurateRip, FLAC -8" %s


TOC of the extracted CD

Track | Start | Length | Start sector | End sector
––––––––––––––––––––––––––––-
1 | 0:00.00 | 3:22.49 | 0 | 15198
2 | 3:22.49 | 3:14.64 | 15199 | 29812
3 | 6:37.38 | 2:43.72 | 29813 | 42109
4 | 9:21.35 | 3:13.10 | 42110 | 56594
5 | 12:34.45 | 3:33.32 | 56595 | 72601
6 | 16:08.02 | 3:18.14 | 72602 | 87465
7 | 19:26.16 | 3:26.08 | 87466 | 102923
8 | 22:52.24 | 2:56.00 | 102924 | 116123
9 | 25:48.24 | 2:44.57 | 116124 | 128480
10 | 28:33.06 | 3:00.09 | 128481 | 141989
11 | 31:33.15 | 3:02.61 | 141990 | 155700
12 | 34:36.01 | 7:52.27 | 155701 | 191127
13 | 42:28.28 | 3:11.52 | 191128 | 205504


Track 1

Filename C:\Addis Gugsa Is Ethiopian\01 - I Wanta Do Something Freaky To You.wav

Pre-gap length 0:00:02.00

Peak level 91.7 %
Extraction speed 2.7 X
Track quality 100.0 %
Test CRC 08433A99
Copy CRC 08433A99
Track not present in AccurateRip database
Copy OK

Track 2

Filename C:\Addis Gugsa Is Ethiopian\02 - I Know What Love Is.wav

Pre-gap length 0:00:01.02

Peak level 95.0 %
Extraction speed 2.9 X
Track quality 100.0 %
Test CRC 1B3E3300
Copy CRC 1B3E3300
Track not present in AccurateRip database
Copy OK

Track 3

Filename C:\Addis Gugsa Is Ethiopian\03 - Believe Half Of What You See (And None Of What You Hear).wav

Pre-gap length 0:00:01.58

Peak level 89.3 %
Extraction speed 3.0 X
Track quality 100.0 %
Test CRC 8857C9B6
Copy CRC 8857C9B6
Track not present in AccurateRip database
Copy OK

Track 4

Filename C:\Addis Gugsa Is Ethiopian\04 - Come And Get Yourself Some.wav

Pre-gap length 0:00:01.18

Peak level 95.2 %
Extraction speed 3.3 X
Track quality 100.0 %
Test CRC 67FB0711
Copy CRC 67FB0711
Track not present in AccurateRip database
Copy OK

Track 5

Filename C:\Addis Gugsa Is Ethiopian\05 - La La Song.wav

Pre-gap length 0:00:01.52

Peak level 99.9 %
Extraction speed 3.5 X
Track quality 100.0 %
Test CRC 0DEB3700
Copy CRC 0DEB3700
Track not present in AccurateRip database
Copy OK

Track 6

Filename C:\Addis Gugsa Is Ethiopian\06 - Sweet Loving Pair.wav

Pre-gap length 0:00:01.01

Peak level 99.9 %
Extraction speed 3.6 X
Track quality 100.0 %
Test CRC F442684D
Copy CRC F442684D
Track not present in AccurateRip database
Copy OK

Track 7

Filename C:\Addis Gugsa Is Ethiopian\07 - Show Me That You Care.wav

Pre-gap length 0:00:01.22

Peak level 99.9 %
Extraction speed 3.8 X
Track quality 100.0 %
Test CRC 6417CADC
Copy CRC 6417CADC
Track not present in AccurateRip database
Copy OK

Track 8

Filename C:\Addis Gugsa Is Ethiopian\08 - Let Them Talk.wav

Pre-gap length 0:00:01.48

Peak level 99.9 %
Extraction speed 3.0 X
Track quality 99.9 %
Test CRC DF8A59E1
Copy CRC DF8A59E1
Track not present in AccurateRip database
Copy OK

Track 9

Filename C:\Addis Gugsa Is Ethiopian\09 - Fair Warnin'.wav

Pre-gap length 0:00:01.50

Peak level 99.9 %
Extraction speed 4.0 X
Track quality 100.0 %
Test CRC 0A80D3E4
Copy CRC 0A80D3E4
Track not present in AccurateRip database
Copy OK

Track 10

Filename C:\Addis Gugsa Is Ethiopian\10 - One Way Ticket To Loveland.wav

Pre-gap length 0:00:00.56

Peak level 99.9 %
Extraction speed 4.2 X
Track quality 100.0 %
Test CRC E623A411
Copy CRC E623A411
Track not present in AccurateRip database
Copy OK

Track 11

Filename C:\Addis Gugsa Is Ethiopian\11 - Make Me Yours.wav

Pre-gap length 0:00:01.51

Peak level 99.9 %
Extraction speed 4.2 X
Track quality 100.0 %
Test CRC 6E80AB55
Copy CRC 6E80AB55
Track not present in AccurateRip database
Copy OK

Track 12

Filename C:\Addis Gugsa Is Ethiopian\12 - Long As There's You (I Got Love).wav

Pre-gap length 0:00:01.45

Peak level 99.9 %
Extraction speed 5.1 X
Track quality 100.0 %
Test CRC 661519D7
Copy CRC 661519D7
Track not present in AccurateRip database
Copy OK

Track 13

Filename C:\Addis Gugsa Is Ethiopian\13 - There Ain't Enough Hate Around (To Make Me Turn Around).wav

Pre-gap length 0:00:01.62

Peak level 99.9 %
Extraction speed 4.8 X
Track quality 100.0 %
Test CRC 249C86CF
Copy CRC 249C86CF
Track not present in AccurateRip database
Copy OK


None of the tracks are present in the AccurateRip database

No errors occurred

End of status report

==== Log checksum C46F7AED329EDC64BCCA7F7ED58730BE3AC671F9F8F4E3FC2FFE27D60FE0F75B ====

[CUETools log; Date: 17.04.2018 5:16:54; Version: 2.1.4]
[CTDB TOCID: ovTEt1WR1fOqYdLTWETqPfbrV.Y-] found.
Track | CTDB Status
1 | (2/2) Accurately ripped
2 | (2/2) Accurately ripped
3 | (2/2) Accurately ripped
4 | (2/2) Accurately ripped
5 | (2/2) Accurately ripped
6 | (2/2) Accurately ripped
7 | (2/2) Accurately ripped
8 | (2/2) Accurately ripped
9 | (2/2) Accurately ripped
10 | (2/2) Accurately ripped
11 | (2/2) Accurately ripped
12 | (2/2) Accurately ripped
13 | (2/2) Accurately ripped
[AccurateRip ID: 00148866-00cefa41-b90ab40d] found.
Track [ CRC | V2 ] Status
01 [df6ec422|5b76e6a0] (0+1/1) Accurately ripped
02 [f3394f31|e814b295] (0+1/1) Accurately ripped
03 [de0473d2|9d4d6600] (0+1/1) Accurately ripped
04 [fb05cbf3|111524bf] (0+1/1) Accurately ripped
05 [6c90ec27|564a5875] (0+1/1) Accurately ripped
06 [5565b989|114a34d5] (0+1/1) Accurately ripped
07 [a2d45470|c2a07739] (0+1/1) Accurately ripped
08 [cdcbd4f6|93d26cc9] (0+1/1) Accurately ripped
09 [c56156b3|a68d1ba6] (0+1/1) Accurately ripped
10 [1d23bbf3|8d6c68be] (0+1/1) Accurately ripped
11 [6a67a928|4d151c6f] (0+1/1) Accurately ripped
12 [dcf4aa81|8c233f9f] (0+1/1) Accurately ripped
13 [72529549|1695d62b] (0+1/1) Accurately ripped

Track Peak [ CRC32 ] [W/O NULL] [ LOG ]
– 99,9 [0B1759A1] [27C5E0AF]
01 91,7 [08433A99] [550C045A] CRC32
02 95,0 [1B3E3300] [E7D9F26A] CRC32
03 89,3 [8857C9B6] [0D1B75C6] CRC32
04 95,2 [67FB0711] [24705FFC] CRC32
05 99,9 [0DEB3700] [C551A1DE] CRC32
06 99,9 [F442684D] [361BE97B] CRC32
07 99,9 [6417CADC] [32ABEA87] CRC32
08 99,9 [DF8A59E1] [A2FCD217] CRC32
09 99,9 [0A80D3E4] [CE4C68D8] CRC32
10 99,9 [E623A411] [52958328] CRC32
11 99,9 [6E80AB55] [1BB387B9] CRC32
12 99,9 [661519D7] [516D03C9] CRC32
13 99,9 [249C86CF] [20360246] CRC32

foobar2000 1.2 / Dynamic Range Meter 1.1.1
log date: 2018-04-17 05:15:30

––––––––––––––––––––––––––––––––––––––––
Analyzed: Leon Haywood / Back To Say
––––––––––––––––––––––––––––––––––––––––

DR Peak RMS Duration Track
––––––––––––––––––––––––––––––––––––––––
DR6 -0.75 dB -7.99 dB 3:23 01-I Wanta Do Something Freaky To You
DR6 -0.44 dB -8.90 dB 3:15 02-I Know What Love Is
DR6 -0.97 dB -8.33 dB 2:44 03-Believe Half Of What You See (And None Of What You Hear)
DR6 -0.43 dB -7.26 dB 3:13 04-Come And Get Yourself Some
DR6 0.00 dB -7.31 dB 3:33 05-La La Song
DR6 0.00 dB -7.67 dB 3:18 06-Sweet Loving Pair
DR6 0.00 dB -7.46 dB 3:26 07-Show Me That You Care
DR6 0.00 dB -7.61 dB 2:56 08-Let Them Talk
DR7 0.00 dB -8.14 dB 2:45 09-Fair Warnin'
DR6 0.00 dB -7.24 dB 3:00 10-One Way Ticket To Loveland
DR6 0.00 dB -7.64 dB 3:03 11-Make Me Yours
DR6 0.00 dB -7.59 dB 7:52 12-Long As There's You (I Got Love)
DR7 0.00 dB -8.56 dB 3:12 13-There Ain't Enough Hate Around (To Make Me Turn Around)
––––––––––––––––––––––––––––––––––––––––

Number of tracks: 13
Official DR value: DR6

Samplerate: 44100 Hz
Channels: 2
Bits per sample: 16
Bitrate: 901 kbps
Codec: FLAC
================================================================================


Exact Audio Copy V1.0 beta 1 from 15. November 2010

EAC extraction logfile from 30. March 2011, 15:00

Leon Haywood / Keep It In The Family

Used drive : Optiarc DVD RW AD-7590S Adapter: 2 ID: 0

Read mode : Secure
Utilize accurate stream : Yes
Defeat audio cache : Yes
Make use of C2 pointers : No

Read offset correction : 48
Overread into Lead-In and Lead-Out : No
Fill up missing offset samples with silence : Yes
Delete leading and trailing silent blocks : No
Null samples used in CRC calculations : Yes
Used interface : Native Win32 interface for Win NT & 2000
Gap handling : Appended to previous track

Used output format : User Defined Encoder
Selected bitrate : 768 kBit/s
Quality : High
Add ID3 tag : No
Command line compressor : C:\Program Files\Exact Audio Copy\Flac\flac.exe
Additional command line options : -8 -V -T "ARTIST=%a" -T "TITLE=%t" -T "ALBUM=%g" -T "DATE=%y" -T "TRACKNUMBER=%n" -T "TOTALTRACKS=%x" -T "GENRE=%m" -T "ALBUMARTIST=%v" -T "ALBUM ARTIST=%v" -T "COMMENT=EAC Secure Mode, Test & Copy, AccurateRip, FLAC -8" %s


TOC of the extracted CD

Track | Start | Length | Start sector | End sector
––––––––––––––––––––––––––––-
1 | 0:00.00 | 3:30.51 | 0 | 15800
2 | 3:30.51 | 2:49.68 | 15801 | 28543
3 | 6:20.44 | 3:27.46 | 28544 | 44114
4 | 9:48.15 | 3:55.26 | 44115 | 61765
5 | 13:43.41 | 2:40.52 | 61766 | 73817
6 | 16:24.18 | 2:41.32 | 73818 | 85924
7 | 19:05.50 | 3:44.67 | 85925 | 102791
8 | 22:50.42 | 2:37.68 | 102792 | 114634
9 | 25:28.35 | 4:20.09 | 114635 | 134143
10 | 29:48.44 | 2:58.34 | 134144 | 147527
11 | 32:47.03 | 8:04.27 | 147528 | 183854
12 | 40:51.30 | 3:26.58 | 183855 | 199362
13 | 44:18.13 | 4:11.16 | 199363 | 218203


Track 1

Filename C:\Addis Gugsa Is Ethiopian\01 - Don't Push It Don't Force It (Let It Happen Naturally).wav

Pre-gap length 0:00:02.00

Peak level 100.0 %
Extraction speed 2.7 X
Track quality 100.0 %
Test CRC AFA2359F
Copy CRC AFA2359F
Track not present in AccurateRip database
Copy OK

Track 2

Filename C:\Addis Gugsa Is Ethiopian\02 - Who You Been Giving It Up To.wav

Pre-gap length 0:00:01.61

Peak level 100.0 %
Extraction speed 2.8 X
Track quality 100.0 %
Test CRC C7AC24A6
Copy CRC C7AC24A6
Track not present in AccurateRip database
Copy OK

Track 3

Filename C:\Addis Gugsa Is Ethiopian\03 - Just Your Fool.wav

Pre-gap length 0:00:01.67

Peak level 99.9 %
Extraction speed 3.2 X
Track quality 100.0 %
Test CRC B4D0F903
Copy CRC B4D0F903
Track not present in AccurateRip database
Copy OK

Track 4

Filename C:\Addis Gugsa Is Ethiopian\04 - Consider The Source.wav

Pre-gap length 0:00:00.73

Peak level 100.0 %
Extraction speed 3.4 X
Track quality 100.0 %
Test CRC BA00FEAE
Copy CRC BA00FEAE
Track not present in AccurateRip database
Copy OK

Track 5

Filename C:\Addis Gugsa Is Ethiopian\05 - Keep It In The Family.wav

Pre-gap length 0:00:01.28

Peak level 100.0 %
Extraction speed 3.3 X
Track quality 100.0 %
Test CRC CD4360EA
Copy CRC CD4360EA
Track not present in AccurateRip database
Copy OK

Track 6

Filename C:\Addis Gugsa Is Ethiopian\06 - Sugar Lump.wav

Pre-gap length 0:00:01.16

Peak level 99.9 %
Extraction speed 3.5 X
Track quality 100.0 %
Test CRC 5D2A24DE
Copy CRC 5D2A24DE
Track not present in AccurateRip database
Copy OK

Track 7

Filename C:\Addis Gugsa Is Ethiopian\07 - That Sweet Woman Of Mine.wav

Pre-gap length 0:00:01.52

Peak level 100.0 %
Extraction speed 3.9 X
Track quality 100.0 %
Test CRC 58FD3613
Copy CRC 58FD3613
Track not present in AccurateRip database
Copy OK

Track 8

Filename C:\Addis Gugsa Is Ethiopian\08 - The Day I Laid Eyes On You.wav

Pre-gap length 0:00:01.08

Peak level 100.0 %
Extraction speed 3.8 X
Track quality 100.0 %
Test CRC 415CEE84
Copy CRC 415CEE84
Track not present in AccurateRip database
Copy OK

Track 9

Filename C:\Addis Gugsa Is Ethiopian\09 - When It Comes Down On You In The Middle Of The Night.wav

Pre-gap length 0:00:01.19

Peak level 100.0 %
Extraction speed 4.3 X
Track quality 100.0 %
Test CRC D965884B
Copy CRC D965884B
Track not present in AccurateRip database
Copy OK

Track 10

Filename C:\Addis Gugsa Is Ethiopian\10 - A Hundred Pounds Of Clay.wav

Pre-gap length 0:00:00.59

Peak level 100.0 %
Extraction speed 4.2 X
Track quality 100.0 %
Test CRC F703CACF
Copy CRC F703CACF
Track not present in AccurateRip database
Copy OK

Track 11

Filename C:\Addis Gugsa Is Ethiopian\11 - Long As There's You (I Got Love).wav

Pre-gap length 0:00:01.17

Peak level 100.0 %
Extraction speed 5.0 X
Track quality 100.0 %
Test CRC 7322C5AC
Copy CRC 7322C5AC
Track not present in AccurateRip database
Copy OK

Track 12

Filename C:\Addis Gugsa Is Ethiopian\12 - B.M.F. Beautiful.wav

Pre-gap length 0:00:01.32

Peak level 99.9 %
Extraction speed 4.7 X
Track quality 100.0 %
Test CRC F469D0DF
Copy CRC F469D0DF
Track not present in AccurateRip database
Copy OK

Track 13

Filename C:\Addis Gugsa Is Ethiopian\13 - You'll Never Walk Alone.wav

Pre-gap length 0:00:01.48

Peak level 100.0 %
Extraction speed 5.1 X
Track quality 100.0 %
Test CRC B98C1D88
Copy CRC B98C1D88
Track not present in AccurateRip database
Copy OK


None of the tracks are present in the AccurateRip database

No errors occurred

End of status report

==== Log checksum 074BF3ADF6F9AC316CF1C3CA34689073AAFB1CCE325A87D1070B2EB5816350D0 ====

[CUETools log; Date: 17.04.2018 5:17:11; Version: 2.1.4]
[CTDB TOCID: WhBhAQXkKy5y02bLhQDymAl1dCE-] found.
Track | CTDB Status
1 | (2/2) Accurately ripped
2 | (2/2) Accurately ripped
3 | (2/2) Accurately ripped
4 | (2/2) Accurately ripped
5 | (2/2) Accurately ripped
6 | (2/2) Accurately ripped
7 | (2/2) Accurately ripped
8 | (2/2) Accurately ripped
9 | (2/2) Accurately ripped
10 | (2/2) Accurately ripped
11 | (2/2) Accurately ripped
12 | (2/2) Accurately ripped
13 | (2/2) Accurately ripped
[AccurateRip ID: 001585ba-00da79da-b10b5d0d] found.
Track [ CRC | V2 ] Status
01 [378f36d8|0e5695fb] (0+1/1) Accurately ripped
02 [cc3092b0|e704cd7f] (0+1/1) Accurately ripped
03 [f5d75ded|f0481295] (0+1/1) Accurately ripped
04 [6fd6bc7c|c22cf224] (0+1/1) Accurately ripped
05 [1b8aa189|33ede78e] (0+1/1) Accurately ripped
06 [f0253bb0|24bfbfd7] (0+1/1) Accurately ripped
07 [a121e1da|b240211e] (0+1/1) Accurately ripped
08 [f56c7fe6|c0a740c9] (0+1/1) Accurately ripped
09 [37d40f26|2ecba57e] (0+1/1) Accurately ripped
10 [fe889a39|5cf49e8c] (0+1/1) Accurately ripped
11 [ccf9ef6f|55920bbe] (0+1/1) Accurately ripped
12 [f2e0c8d6|796a03f0] (0+1/1) Accurately ripped
13 [563f240d|a0ec904d] (0+1/1) Accurately ripped

Track Peak [ CRC32 ] [W/O NULL] [ LOG ]
– 99,9 [2779D639] [A3BE083E]
01 99,9 [AFA2359F] [A73292AB] CRC32
02 99,9 [C7AC24A6] [C264759D] CRC32
03 99,9 [B4D0F903] [A3FA947C] CRC32
04 99,9 [BA00FEAE] [40432687] CRC32
05 99,9 [CD4360EA] [06C701B4] CRC32
06 99,9 [5D2A24DE] [CCEC0894] CRC32
07 99,9 [58FD3613] [9C4DA279] CRC32
08 99,9 [415CEE84] [F1BF67E9] CRC32
09 99,9 [D965884B] [84A80053] CRC32
10 99,9 [F703CACF] [AF10545C] CRC32
11 99,9 [7322C5AC] [51B18719] CRC32
12 99,9 [F469D0DF] [D9F7B0AB] CRC32
13 99,9 [B98C1D88] [EC590EA0] CRC32

foobar2000 1.2 / Dynamic Range Meter 1.1.1
log date: 2018-04-17 05:15:52

––––––––––––––––––––––––––––––––––––––––
Analyzed: Leon Haywood / Keep It In The Family
––––––––––––––––––––––––––––––––––––––––

DR Peak RMS Duration Track
––––––––––––––––––––––––––––––––––––––––
DR7 0.00 dB -8.38 dB 3:31 01-Don't Push It Don't Force It (Let It Happen Naturally)
DR7 0.00 dB -8.34 dB 2:50 02-Who You Been Giving It Up To
DR6 0.00 dB -7.95 dB 3:28 03-Just Your Fool
DR8 0.00 dB -8.96 dB 3:55 04-Consider The Source
DR8 0.00 dB -9.00 dB 2:41 05-Keep It In The Family
DR8 0.00 dB -9.89 dB 2:41 06-Sugar Lump
DR7 0.00 dB -8.70 dB 3:45 07-That Sweet Woman Of Mine
DR8 0.00 dB -8.77 dB 2:38 08-The Day I Laid Eyes On You
DR8 0.00 dB -10.31 dB 4:20 09-When It Comes Down On You In The Middle Of The Night
DR8 0.00 dB -9.95 dB 2:58 10-A Hundred Pounds Of Clay
DR7 0.00 dB -9.12 dB 8:04 11-Long As There's You (I Got Love)
DR9 0.00 dB -10.09 dB 3:27 12-B.M.F. Beautiful
DR7 0.00 dB -8.67 dB 4:11 13-You'll Never Walk Alone
––––––––––––––––––––––––––––––––––––––––

Number of tracks: 13
Official DR value: DR8

Samplerate: 44100 Hz
Channels: 2
Bits per sample: 16
Bitrate: 892 kbps
Codec: FLAC
================================================================================

Leon Haywood - Back To Say (1973) + Keep It In The Family (1974) 2 CDs, Expanded Remastered 2011

Leon Haywood - Back To Say (1973) + Keep It In The Family (1974) 2 CDs, Expanded Remastered 2011

All thanks to original releaser - addis

More interesting music in My Blog