Subcategories

Leonard Cohen - I'm Your Man (1988)

Posted By: popsakov
Leonard Cohen - I'm Your Man (1988)

Leonard Cohen - I'm Your Man (1988)
EAC Rip | FLAC (Img) + Cue + Log ~ 248 Mb | MP3 CBR320 ~ 99 Mb
Full Scans ~ 82 Mb | 00:40:58 | RAR 5% Recovery
Rock, Folk, Synth-Pop | Columbia #CK 44191

A stunningly sophisticated leap into modern musical textures, I'm Your Man re-establishes Leonard Cohen's mastery. Against a backdrop of keyboards and propulsive rhythms, Cohen surveys the global landscape with a precise, unflinching eye: the opening "First We Take Manhattan" is an ominous fantasy of commercial success bundled in crypto-fascist imagery, while the remarkable "Everybody Knows" is a cynical catalog of the land mines littering the surface of love in the age of AIDS.

~ Jason Ankeny, All Music

***************

Leonard Cohen - I'm Your Man (1988)

Leonard Cohen - I'm Your Man (1988)

Track List:

01. First We Take Manhattan [6:02]
02. Ain't No Cure for Love [4:51]
03. Everybody Knows [5:36]
04. I'm Your Man [4:26]
05. Take This Waltz [6:00]
06. Jazz Police [3:54]
07. I Can't Forget [4:32]
08. Tower of Song [5:38]

Personnel:
Leonard Cohen - keyboards, vocals
Jude Johnson - vocals
Anjani Thomas - vocals
Jennifer Warnes - vocals
Mayel Assouly - backing vocals
Evelyine Hebey - backing vocals
Elisabeth Valletti - backing vocals
Jeff Fisher - keyboards
Bob Stanley - guitar
Sneaky Pete Kleinow - pedal steel guitar
Peter Kisilenko - bass
Tom Brechtlein - drums
Vinnie Colaiuta - drums
Lenny Castro - percussion
Michel Robidoux - drums, keyboards
John Bilezikjian - oud
Richard Beaudet - saxophone
Raffi Hakopian - violin

Exact Audio Copy V1.2 from 12. August 2016

EAC extraction logfile from 11. November 2016, 18:02

Cohen, Leonard / I'm Your Man

Used drive : TSSTcorpCDDVDW TS-H653B Adapter: 1 ID: 0

Read mode : Secure
Utilize accurate stream : Yes
Defeat audio cache : Yes
Make use of C2 pointers : No

Read offset correction : 6
Overread into Lead-In and Lead-Out : No
Fill up missing offset samples with silence : Yes
Delete leading and trailing silent blocks : No
Null samples used in CRC calculations : Yes
Used interface : Native Win32 interface for Win NT & 2000

Used output format : User Defined Encoder
Selected bitrate : 896 kBit/s
Quality : High
Add ID3 tag : No
Command line compressor : C:\Program Files (x86)\Exact Audio Copy\wavpack-4.80.0-x64\wavpack.exe
Additional command line options : -hm %source% %dest%


TOC of the extracted CD

Track | Start | Length | Start sector | End sector
––––––––––––––––––––––––––––-
1 | 0:00.00 | 6:01.40 | 0 | 27114
2 | 6:01.40 | 4:50.62 | 27115 | 48926
3 | 10:52.27 | 5:36.20 | 48927 | 74146
4 | 16:28.47 | 4:26.00 | 74147 | 94096
5 | 20:54.47 | 5:59.38 | 94097 | 121059
6 | 26:54.10 | 3:54.02 | 121060 | 138611
7 | 30:48.12 | 4:31.70 | 138612 | 159006
8 | 35:20.07 | 5:37.70 | 159007 | 184351


Range status and errors

Selected range

Filename G:\MUSIC\NL[ZAM]\LC_IYM\Cohen, Leonard - I'm Your Man.wav

Peak level 97.7 %
Extraction speed 6.4 X
Range quality 99.9 %
Test CRC 0414A3DF
Copy CRC 0414A3DF
Copy OK

No errors occurred


AccurateRip summary

Track 1 accurately ripped (confidence 27) [F239B6F1] (AR v2)
Track 2 accurately ripped (confidence 26) [1FC6919C] (AR v2)
Track 3 accurately ripped (confidence 27) [A66F1E3B] (AR v2)
Track 4 accurately ripped (confidence 27) [5A06D673] (AR v2)
Track 5 accurately ripped (confidence 26) [F4327565] (AR v2)
Track 6 accurately ripped (confidence 27) [B027D67A] (AR v2)
Track 7 accurately ripped (confidence 26) [59B68765] (AR v2)
Track 8 accurately ripped (confidence 25) [2FFE36F0] (AR v2)

All tracks accurately ripped

End of status report

–– CUETools DB Plugin V2.1.6

[CTDB TOCID: zNNvq8Yzm8Ui8iVDAKCWytuiSBA-] found
Submit result: zNNvq8Yzm8Ui8iVDAKCWytuiSBA- has been confirmed
Track | CTDB Status
1 | (52/56) Accurately ripped
2 | (55/56) Accurately ripped
3 | (54/56) Accurately ripped
4 | (54/56) Accurately ripped
5 | (55/56) Accurately ripped
6 | (55/56) Accurately ripped
7 | (53/56) Accurately ripped
8 | (53/56) Accurately ripped

[CUETools log; Date: 13.11.2016 2:33:59; Version: 2.1.5]
[CTDB TOCID: zNNvq8Yzm8Ui8iVDAKCWytuiSBA-] found.
Track | CTDB Status
1 | (53/57) Accurately ripped
2 | (56/57) Accurately ripped
3 | (55/57) Accurately ripped
4 | (55/57) Accurately ripped
5 | (56/57) Accurately ripped
6 | (56/57) Accurately ripped
7 | (54/57) Accurately ripped
8 | (54/57) Accurately ripped
[AccurateRip ID: 000cedd5-00556331-60099a08] found.
Track [ CRC | V2 ] Status
01 [1e2559e0|f239b6f1] (27+27/79) Accurately ripped
02 [95b5854f|1fc6919c] (28+26/81) Accurately ripped
03 [aa230697|a66f1e3b] (28+27/79) Accurately ripped
04 [ea5b8352|5a06d673] (26+27/78) Accurately ripped
05 [907c3e7d|f4327565] (26+26/79) Accurately ripped
06 [990cf09e|b027d67a] (27+27/81) Accurately ripped
07 [9fce4e7d|59b68765] (25+26/77) Accurately ripped
08 [e2058503|2ffe36f0] (27+25/78) Accurately ripped
Offsetted by -1768:
01 [90a8351f] (05/79) Accurately ripped
02 [cfff0697] (05/81) Accurately ripped
03 [9e18701d] (05/79) Accurately ripped
04 [efaea2bf] (05/78) Accurately ripped
05 [05caf481] (05/79) Accurately ripped
06 [9a27a012] (05/81) Accurately ripped
07 [d19f1348] (05/77) Accurately ripped
08 [e77b37f1] (05/78) Accurately ripped
Offsetted by -1721:
01 [f2d23233] (04/79) Accurately ripped
02 [d0ae446b] (04/81) Accurately ripped
03 [3802f709] (04/79) Accurately ripped
04 [856403bd] (04/78) Accurately ripped
05 [13c14087] (04/79) Accurately ripped
06 [8b7dd00b] (04/81) Accurately ripped
07 [a3047108] (03/77) Accurately ripped
08 [0abd1f7b] (03/78) Accurately ripped
Offsetted by -961:
01 [d52dfe0b] (00/79) No match (V2 was not tested)
02 [d706c700] (00/81) No match (V2 was not tested)
03 [bb1cacba] (00/79) No match (V2 was not tested)
04 [7d44eedb] (00/78) No match (V2 was not tested)
05 [4e4a0d10] (00/79) No match (V2 was not tested)
06 [055813a0] (00/81) No match (V2 was not tested)
07 [a63e3a75] (00/77) No match (V2 was not tested)
08 [0d70ca6d] (00/78) No match (V2 was not tested)
Offsetted by -567:
01 [93787f2b] (00/79) No match (V2 was not tested)
02 [e24c06c9] (02/81) Accurately ripped
03 [0401b04c] (02/79) Accurately ripped
04 [8aba78af] (02/78) Accurately ripped
05 [2e05190f] (02/79) Accurately ripped
06 [71757db6] (02/81) Accurately ripped
07 [e7aeda9c] (02/77) Accurately ripped
08 [3bf5db06] (02/78) Accurately ripped
Offsetted by -384:
01 [a4f70918] (00/79) No match (V2 was not tested)
02 [16cc20c3] (00/81) No match (V2 was not tested)
03 [b39b6945] (00/79) No match (V2 was not tested)
04 [541fe185] (00/78) No match (V2 was not tested)
05 [7d9d1e60] (00/79) No match (V2 was not tested)
06 [06ab6e6f] (00/81) No match (V2 was not tested)
07 [5509021a] (00/77) No match (V2 was not tested)
08 [6d2dca8c] (00/78) No match (V2 was not tested)

Track Peak [ CRC32 ] [W/O NULL] [ LOG ]
– 97,7 [0414A3DF] [D82A2DD6] CRC32
01 97,7 [A93BE9D1] [F6EC467E]
02 68,5 [1831DD12] [077A110E]
03 63,3 [E428F870] [160653D6]
04 53,8 [392253D5] [8A817D82]
05 76,3 [EDCD8296] [9A5185CF]
06 64,1 [B2D36A4B] [86FAB5FE]
07 61,1 [1DC28F31] [8CE7EEAF]
08 61,1 [9902BE2E] [D29069D7]

Leonard Cohen - I'm Your Man (1988)


All thanks go to Alex ZAM

>>> Leonard Cohen in my Blog <<<

DOWNLOAD: