Leonard Cohen - Recent Songs (1979) [1990, Columbia] Combined Repost

Posted By: Andi_Deris
Leonard Cohen - Recent Songs (1979) [1990, Columbia] Combined Repost

Leonard Cohen - Recent Songs (1979) [1990, Columbia]
EAC Rip | FLAC: Tracks+Cue+Log | 252 Mb | MP3 CBR 320 kbps | 127 Mb | Scans | Time: 52:56
Columbia | CK 36264
Folk Rock, Singer-Songwriter, Spoken Word

Recent Songs is the sixth studio album by Leonard Cohen, released in 1979. Produced by Leonard Cohen and Henry Lewy, it was a return to Cohen's acoustic folk music after the Phil Spector experimentation of Death of a Ladies' Man, but now with many jazz and Oriental influences.

Leonard Cohen - Recent Songs (1979) [1990, Columbia] Combined Repost




Track Listing

01. The Guests (06:40)
02. Humbled In Love (05:15)
03. The Window (05:55)
04. Came So Far For Beauty (04:03)
05. The Lost Canadian (Un Canadien Errant) (04:41)
06. The Traitor (06:14)
07. Our Lady Of Solitude (03:13)
08. The Gypsy's Wife (05:13)
09. The Smokey Life (05:18)
10. Ballad Of The Absent Mare (06:23)

Produced by Leonard Cohen and Henry Lewy

EAC extraction logfile from 23. May 2006, 0:46 for CD
Leonard Cohen / Recent Songs

Used drive : PIONEER DVD RW DVR-107D Adapter: 1 ID: 0
Read mode : Secure with NO C2, accurate stream, disable cache
Read offset correction : 48
Overread into Lead-In and Lead-Out : No

Used output format : Internal WAV Routines
44.100 Hz; 16 Bit; Stereo

Other options :
Fill up missing offset samples with silence : Yes
Delete leading and trailing silent blocks : No
Installed external ASPI interface


Track 1
Filename D:\EAC\01 The Guests.wav

Pre-gap length 0:00:02.00

Peak level 80.3 %
Track quality 100.0 %
Test CRC 1C34C9F8
Copy CRC 1C34C9F8
Copy OK

Track 2
Filename D:\EAC\02 Humbled in Love.wav

Peak level 98.8 %
Track quality 100.0 %
Test CRC 7898CC34
Copy CRC 7898CC34
Copy OK

Track 3
Filename D:\EAC\03 The Window.wav

Peak level 72.3 %
Track quality 100.0 %
Test CRC D76B93D3
Copy CRC D76B93D3
Copy OK

Track 4
Filename D:\EAC\04 Came So Far for Beauty.wav

Peak level 55.1 %
Track quality 99.9 %
Test CRC 665CEFE7
Copy CRC 665CEFE7
Copy OK

Track 5
Filename D:\EAC\05 The Lost Canadian (Un Canadien Errant).wav

Peak level 65.9 %
Track quality 100.0 %
Test CRC 6519905F
Copy CRC 6519905F
Copy OK

Track 6
Filename D:\EAC\06 The Traitor.wav

Peak level 46.7 %
Track quality 100.0 %
Test CRC 3D78C367
Copy CRC 3D78C367
Copy OK

Track 7
Filename D:\EAC\07 Our Lady of Solitude.wav

Peak level 99.9 %
Track quality 100.0 %
Test CRC AE293607
Copy CRC AE293607
Copy OK

Track 8
Filename D:\EAC\08 The Gypsy's Wife.wav

Peak level 61.5 %
Track quality 100.0 %
Test CRC BED30F62
Copy CRC BED30F62
Copy OK

Track 9
Filename D:\EAC\09 The Smokey Life.wav

Peak level 70.4 %
Track quality 100.0 %
Test CRC 911B3AAE
Copy CRC 911B3AAE
Copy OK

Track 10
Filename D:\EAC\10 Ballad of the Absent Mare.wav

Peak level 74.3 %
Track quality 100.0 %
Test CRC 0C4933C5
Copy CRC 0C4933C5
Copy OK

No errors occured


End of status report


Many thanks to the original uploader: toasties

SEE also:
Leonard Cohen 2002 The Essential Leonard Cohen [2CD]
Leonard Cohen 2012 Old Ideas
Leonard Cohen 2014 Popular Problems