Subcategories

Leonard Cohen - So Long, Marianne (1989) [Compilation]

Posted By: Andi_Deris
Leonard Cohen - So Long, Marianne (1989) [Compilation]

Leonard Cohen - So Long, Marianne (1989) [Compilation]
EAC Rip | FLAC: Tracks+Cue+Log | 212 Mb | MP3 CBR 320 kbps | 100 Mb | Scans | Time: 41:44
CBS | 902297 2
Folk Rock, Singer-Songwriter, Spoken Word

So Long, Marianne is a compilation album by Leonard Cohen, issued in 1989 and in 1995. It features songs from his first four albums, already covered by his 1975 best of album. Although not authorized by the artist, the album is nevertheless an official release, as Cohen's label issued it. This compilation CD has been released in several countries. All versions are composed of the same tracks but the cover art is different.

Leonard Cohen - So Long, Marianne (1989) [Compilation]




Track Listing

01. Who By Fire (02:32)
02. So Long, Marianne (05:39)
03. Chelsea Hotel #2 (03:06)
04. Lady Midnight (02:58)
05. Sisters Of Mercy (03:35)
06. Bird On The Wire (03:26)
07. Suzanne (03:49)
08. Lover Lover Lover (03:21)
09. Winter Lady (02:18)
10. Tonight Will Be Fine (03:49)
11. The Partisan (03:24)
12. Diamonds In The Mine (03:48)

Produced by Various

Notes

Serie: CBS Collectors Choice

℗ 1970, 1969, 1968, 1974 CBS Records Inc.
© 1990 CBS United Kingdom Ltd.


Exact Audio Copy V0.99 prebeta 3 from 28. July 2007

EAC extraction logfile from 22. January 2008, 3:55

Leonard Cohen / So Long Marianne

Used drive : SONY DVD+-RW DW-D56A Adapter: 1 ID: 0

Read mode : Secure
Utilize accurate stream : Yes
Defeat audio cache : Yes
Make use of C2 pointers : No

Read offset correction : 12
Overread into Lead-In and Lead-Out : No
Fill up missing offset samples with silence : Yes
Delete leading and trailing silent blocks : No
Null samples used in CRC calculations : Yes
Used interface : Native Win32 interface for Win NT & 2000
Gap handling : Appended to previous track

Used output format : User Defined Encoder
Selected bitrate : 128 kBit/s
Quality : High
Add ID3 tag : Yes
Command line compressor : C:\Program Files\FLAC\flac.exe
Additional command line options : -V -8 -T "artist=%a" -T "title=%t" -T "album=%g" -T "date=%y" -T "tracknumber=%n" -T "genre=%m" %s


TOC of the extracted CD

Track | Start | Length | Start sector | End sector
––––––––––––––––––––––––––––-
1 | 0:00.00 | 2:32.28 | 0 | 11427
2 | 2:32.28 | 5:38.67 | 11428 | 36844
3 | 8:11.20 | 3:05.45 | 36845 | 50764
4 | 11:16.65 | 2:57.38 | 50765 | 64077
5 | 14:14.28 | 3:34.40 | 64078 | 80167
6 | 17:48.68 | 3:25.62 | 80168 | 95604
7 | 21:14.55 | 3:48.43 | 95605 | 112747
8 | 25:03.23 | 3:20.67 | 112748 | 127814
9 | 28:24.15 | 2:17.55 | 127815 | 138144
10 | 30:41.70 | 3:48.45 | 138145 | 155289
11 | 34:30.40 | 3:24.10 | 155290 | 170599
12 | 37:54.50 | 3:48.13 | 170600 | 187712


Track 1

Filename C:\Leonard Cohen - So Long Marianne\01-Who By Fire.wav

Pre-gap length 0:00:02.00

Peak level 94.0 %
Track quality 100.0 %
Test CRC D506708D
Copy CRC D506708D
Copy OK

Track 2

Filename C:\Leonard Cohen - So Long Marianne\02-So Long, Marianne.wav

Pre-gap length 0:00:02.50

Peak level 94.8 %
Track quality 100.0 %
Test CRC E06A35CE
Copy CRC E06A35CE
Copy OK

Track 3

Filename C:\Leonard Cohen - So Long Marianne\03-Chelsea Hotel #2.wav

Pre-gap length 0:00:01.66

Peak level 88.6 %
Track quality 99.9 %
Test CRC E3EA5841
Copy CRC E3EA5841
Copy OK

Track 4

Filename C:\Leonard Cohen - So Long Marianne\04-Lady Midnight.wav

Pre-gap length 0:00:01.73

Peak level 65.9 %
Track quality 100.0 %
Test CRC DAEDD4F3
Copy CRC DAEDD4F3
Copy OK

Track 5

Filename C:\Leonard Cohen - So Long Marianne\05-Sisters of Mercy.wav

Pre-gap length 0:00:02.20

Peak level 68.0 %
Track quality 99.9 %
Test CRC 79EE015A
Copy CRC 79EE015A
Copy OK

Track 6

Filename C:\Leonard Cohen - So Long Marianne\06-Bird on the Wire.wav

Peak level 49.3 %
Track quality 100.0 %
Test CRC 44106F34
Copy CRC 44106F34
Copy OK

Track 7

Filename C:\Leonard Cohen - So Long Marianne\07-Suzanne.wav

Pre-gap length 0:00:01.73

Peak level 71.5 %
Track quality 100.0 %
Test CRC 209F5714
Copy CRC 209F5714
Copy OK

Track 8

Filename C:\Leonard Cohen - So Long Marianne\08-Lover Lover Lover.wav

Pre-gap length 0:00:02.06

Peak level 84.3 %
Track quality 99.9 %
Test CRC D1786EEF
Copy CRC D1786EEF
Copy OK

Track 9

Filename C:\Leonard Cohen - So Long Marianne\09-Winter Lady.wav

Pre-gap length 0:00:02.20

Peak level 71.3 %
Track quality 100.0 %
Test CRC AAD5FE1B
Copy CRC AAD5FE1B
Copy OK

Track 10

Filename C:\Leonard Cohen - So Long Marianne\10-Tonight Will Be Fine.wav

Pre-gap length 0:00:02.40

Peak level 76.5 %
Track quality 100.0 %
Test CRC B26D70AB
Copy CRC B26D70AB
Copy OK

Track 11

Filename C:\Leonard Cohen - So Long Marianne\11-The Partisan.wav

Pre-gap length 0:00:01.89

Peak level 83.0 %
Track quality 100.0 %
Test CRC DA8344AB
Copy CRC DA8344AB
Copy OK

Track 12

Filename C:\Leonard Cohen - So Long Marianne\12-Diamonds in the Mine.wav

Pre-gap length 0:00:01.40

Peak level 85.1 %
Track quality 100.0 %
Test CRC 2B9ACDD6
Copy CRC 2B9ACDD6
Copy OK

No errors occurred

End of status report


Many thanks to the original uploader: Harmonic33