Subcategories

Leonard Cohen - The Future (1992)

Posted By: popsakov
Leonard Cohen - The Future (1992)

Leonard Cohen - The Future (1992)
EAC Rip | FLAC (Img) + Cue + Log ~ 390 Mb | MP3 CBR320 ~ 156 Mb
Scans Included (JPG, 300 dpi + PDF) | RAR 5% Recovery
Folk Rock, Soft Rock | Columbia #472498 2 / COL 472498 2 / 02-472498-10

Leonard Cohen's deeply personal first LPs came out at a time when many of his peers were issuing furious, counterculture-inspired rants; he clearly had little interest in sticking with the pack at the time. So it makes a certain kind of contrary sense that Cohen would put out an offbeat, topical collection two-and-a-half decades later. The Future is an odd duck of an album; it's also brave, funny, and fascinating. "Give me back the Berlin Wall/ Give me Stalin and St. Paul", Cohen petitions sardonically in the title track, adding, "I've seen the future, brother: it is murder". "Can't run no more with the lawless crowd/ While the killers in high places say their prayers out loud", he intones in "Anthem"; in "Democracy", he name- checks Tiananmen Square while surveying the United States ("The cradle of the best and of the worst"). Cohen has only improved with age as a vocalist; here, he sounds like a cross between Mark Knopfler and Barry White. ~ Steven Stolder

***************

Leonard Cohen - The Future (1992)

Leonard Cohen - The Future (1992)

Track List:

01. The Future [6:43]
02. Waiting for the Miracle [7:43]
03. Be for Real [4:32]
04. Closing Time [6:01]
05. Anthem [6:09]
06. Democracy [7:15]
07. Light as the Breeze [7:17]
08. Always [8:04]
09. Tacoma Trailer [5:57]

Exact Audio Copy V1.3 from 2. September 2016

EAC extraction logfile from 25. March 2017, 22:41

LEONARD COHEN / The Future

Used drive : TSSTcorpCDDVDW SH-224DB Adapter: 1 ID: 1

Read mode : Secure
Utilize accurate stream : Yes
Defeat audio cache : Yes
Make use of C2 pointers : No

Read offset correction : 6
Overread into Lead-In and Lead-Out : No
Fill up missing offset samples with silence : Yes
Delete leading and trailing silent blocks : No
Null samples used in CRC calculations : Yes
Used interface : Installed external ASPI interface

Used output format : Internal WAV Routines
Sample format : 44.100 Hz; 16 Bit; Stereo


TOC of the extracted CD

Track | Start | Length | Start sector | End sector
––––––––––––––––––––––––––––-
1 | 0:00.00 | 6:43.00 | 0 | 30224
2 | 6:43.00 | 7:42.70 | 30225 | 64944
3 | 14:25.70 | 4:32.25 | 64945 | 85369
4 | 18:58.20 | 6:00.52 | 85370 | 112421
5 | 24:58.72 | 6:09.08 | 112422 | 140104
6 | 31:08.05 | 7:14.57 | 140105 | 172711
7 | 38:22.62 | 7:16.68 | 172712 | 205479
8 | 45:39.55 | 8:04.10 | 205480 | 241789
9 | 53:43.65 | 5:57.17 | 241790 | 268581


Range status and errors

Selected range

Filename C:\Downloads\LEONARD COHEN\1992 - The Future\LEONARD COHEN - The Future.wav

Peak level 99.9 %
Extraction speed 2.9 X
Range quality 100.0 %
Test CRC ACED5225
Copy CRC ACED5225
Copy OK

No errors occurred


AccurateRip summary

Track 1 accurately ripped (confidence 62) [558C8E18] (AR v2)
Track 2 accurately ripped (confidence 61) [C9E58981] (AR v2)
Track 3 accurately ripped (confidence 63) [DBBBF8E3] (AR v2)
Track 4 accurately ripped (confidence 63) [210C3A5F] (AR v2)
Track 5 accurately ripped (confidence 63) [5F602D03] (AR v2)
Track 6 accurately ripped (confidence 63) [BA0FBFD8] (AR v2)
Track 7 accurately ripped (confidence 63) [EC1EBDCE] (AR v2)
Track 8 accurately ripped (confidence 61) [6CDD2323] (AR v2)
Track 9 accurately ripped (confidence 62) [40BFACF4] (AR v2)

All tracks accurately ripped

End of status report

–– CUETools DB Plugin V2.1.6

[CTDB TOCID: gibE5gfB4pEvWSFPk4d37lJ2VNU-] found
Submit result: gibE5gfB4pEvWSFPk4d37lJ2VNU- has been confirmed
Track | CTDB Status
1 | (495/503) Accurately ripped
2 | (497/503) Accurately ripped
3 | (498/503) Accurately ripped
4 | (500/503) Accurately ripped
5 | (499/503) Accurately ripped
6 | (499/503) Accurately ripped
7 | (494/503) Accurately ripped
8 | (497/503) Accurately ripped
9 | (492/503) Accurately ripped


==== Log checksum 2D9AC733598632CE5F60B85A564A2550D109CF7488785AB7DA1CDDCA74938F24 ====

foobar2000 1.2.6 / Dynamic Range Meter 1.1.1
log date: 2017-05-12 17:59:06

––––––––––––––––––––––––––––––––––––––––
Analyzed: LEONARD COHEN / The Future
––––––––––––––––––––––––––––––––––––––––

DR Peak RMS Duration Track
––––––––––––––––––––––––––––––––––––––––
DR11 -0.30 dB -12.85 dB 6:43 01-The Future
DR10 -3.09 dB -14.78 dB 7:43 02-Waiting for the Miracle
DR11 -0.39 dB -13.39 dB 4:32 03-Be for Real
DR10 -0.01 dB -12.20 dB 6:01 04-Closing Time
DR12 -0.26 dB -14.52 dB 6:09 05-Anthem
DR12 -0.12 dB -13.69 dB 7:15 06-Democracy
DR13 -0.82 dB -16.22 dB 7:17 07-Light as the Breeze
DR11 -0.19 dB -13.82 dB 8:04 08-Always
DR11 -0.42 dB -15.30 dB 5:57 09-Tacoma Trailer
––––––––––––––––––––––––––––––––––––––––

Number of tracks: 9
Official DR value: DR11

Samplerate: 44100 Hz
Channels: 2
Bits per sample: 16
Bitrate: 839 kbps
Codec: FLAC
================================================================================

[CUETools log; Date: 12.05.2017 17:59:11; Version: 2.1.5]
[CTDB TOCID: gibE5gfB4pEvWSFPk4d37lJ2VNU-] found.
Track | CTDB Status
1 | (518/526) Accurately ripped
2 | (520/526) Accurately ripped
3 | (521/526) Accurately ripped
4 | (523/526) Accurately ripped
5 | (522/526) Accurately ripped
6 | (522/526) Accurately ripped
7 | (516/526) Accurately ripped
8 | (519/526) Accurately ripped
9 | (515/526) Accurately ripped
[AccurateRip ID: 00142a9f-00943a54-5f0dfd09] found.
Track [ CRC | V2 ] Status
01 [1c822081|558c8e18] (046+063/637) Accurately ripped
02 [2cef3504|c9e58981] (046+062/637) Accurately ripped
03 [a04ea5ac|dbbbf8e3] (045+064/636) Accurately ripped
04 [2eb9e34b|210c3a5f] (045+064/634) Accurately ripped
05 [47bb0a5a|5f602d03] (045+064/632) Accurately ripped
06 [c9426e09|ba0fbfd8] (045+064/629) Accurately ripped
07 [8bba2e09|ec1ebdce] (046+064/629) Accurately ripped
08 [428d7140|6cdd2323] (046+062/623) Accurately ripped
09 [6d5fad26|40bfacf4] (045+063/616) Accurately ripped
Offsetted by -1199:
01 [222fd8db] (002/637) Accurately ripped
02 [64260b02] (002/637) Accurately ripped
03 [7b4e8dd3] (002/636) Accurately ripped
04 [2e19175b] (002/634) Accurately ripped
05 [e0cac063] (002/632) Accurately ripped
06 [b07011c1] (002/629) Accurately ripped
07 [f6269f58] (002/629) Accurately ripped
08 [b436ec7e] (002/623) Accurately ripped
09 [e5023dc0] (002/616) Accurately ripped
Offsetted by -667:
01 [a82d3bc2] (002/637) Accurately ripped
02 [37c58679] (002/637) Accurately ripped
03 [ea878ec7] (002/636) Accurately ripped
04 [2a6abd6a] (002/634) Accurately ripped
05 [6cf726b2] (002/632) Accurately ripped
06 [78b874d2] (002/629) Accurately ripped
07 [3a788d09] (002/629) Accurately ripped
08 [5a07c1cd] (002/623) Accurately ripped
09 [33357fe1] (002/616) Accurately ripped
Offsetted by -346:
01 [59ca4304] (060/637) Accurately ripped
02 [9718a6d3] (061/637) Accurately ripped
03 [3ac10b94] (061/636) Accurately ripped
04 [1d19b7ea] (061/634) Accurately ripped
05 [df5069aa] (061/632) Accurately ripped
06 [38917858] (061/629) Accurately ripped
07 [99dec8f3] (060/629) Accurately ripped
08 [df99bc09] (061/623) Accurately ripped
09 [ece96574] (059/616) Accurately ripped
Offsetted by 282:
01 [63bccb04] (013/637) Accurately ripped
02 [5d53f4aa] (014/637) Accurately ripped
03 [14db8d80] (013/636) Accurately ripped
04 [62cc3f09] (013/634) Accurately ripped
05 [beeb1cd2] (013/632) Accurately ripped
06 [12eaa1bc] (013/629) Accurately ripped
07 [def5cd6b] (013/629) Accurately ripped
08 [783e184c] (013/623) Accurately ripped
09 [6dc01503] (013/616) Accurately ripped
Offsetted by 1142:
01 [0d52aac0] (014/637) Accurately ripped
02 [1ff9f12d] (014/637) Accurately ripped
03 [b705305a] (015/636) Accurately ripped
04 [1d700cee] (014/634) Accurately ripped
05 [d274fbc1] (014/632) Accurately ripped
06 [aa7b647b] (014/629) Accurately ripped
07 [cf707d2e] (014/629) Accurately ripped
08 [0192dd35] (014/623) Accurately ripped
09 [1cb62735] (013/616) Accurately ripped
Offsetted by 1999:
01 [4f49f3e9] (066/637) Accurately ripped
02 [55817cc2] (066/637) Accurately ripped
03 [96147079] (066/636) Accurately ripped
04 [4073af30] (065/634) Accurately ripped
05 [210b6045] (065/632) Accurately ripped
06 [99bb39c0] (065/629) Accurately ripped
07 [fb1cb18e] (064/629) Accurately ripped
08 [4491468c] (063/623) Accurately ripped
09 [2b15d872] (061/616) Accurately ripped
Offsetted by -382:
01 [4f29de2a] (000/637) No match (V2 was not tested)
02 [29fae0fc] (000/637) No match (V2 was not tested)
03 [39760c49] (000/636) No match (V2 was not tested)
04 [d502a997] (000/634) No match (V2 was not tested)
05 [243d8f8a] (000/632) No match (V2 was not tested)
06 [28f782f2] (000/629) No match (V2 was not tested)
07 [2aa90dd0] (000/629) No match (V2 was not tested)
08 [c06a2012] (000/623) No match (V2 was not tested)
09 [c86ef8b9] (000/616) No match (V2 was not tested)
Offsetted by -349:
01 [a8beb67e] (000/637) No match
02 [c7932c16] (000/637) No match (V2 was not tested)
03 [ace6e4b2] (000/636) No match (V2 was not tested)
04 [b27c5b4a] (000/634) No match (V2 was not tested)
05 [fa2756fd] (000/632) No match (V2 was not tested)
06 [51a2c26a] (000/629) No match (V2 was not tested)
07 [52a2f97e] (000/629) No match (V2 was not tested)
08 [07ad82c2] (000/623) No match (V2 was not tested)
09 [85e6fe71] (000/616) No match (V2 was not tested)
Offsetted by -345:
01 [d47ef61e] (000/637) No match (V2 was not tested)
02 [352ca88e] (000/637) No match
03 [92a6c0fa] (000/636) No match
04 [898f2c1e] (000/634) No match
05 [56835ad6] (000/632) No match
06 [38fe00dd] (000/629) No match
07 [5b22636f] (000/629) No match
08 [72658c98] (000/623) No match
09 [650ef8e2] (000/616) No match
Offsetted by 1335:
01 [0632e4aa] (000/637) No match (V2 was not tested)
02 [fe7cabaa] (000/637) No match (V2 was not tested)
03 [c03c8343] (000/636) No match (V2 was not tested)
04 [364835d8] (000/634) No match (V2 was not tested)
05 [19051155] (000/632) No match (V2 was not tested)
06 [b8c9b181] (000/629) No match (V2 was not tested)
07 [46f071ac] (000/629) No match (V2 was not tested)
08 [6320c69d] (000/623) No match (V2 was not tested)
09 [b76ad0c6] (000/616) No match (V2 was not tested)
Offsetted by 2293:
01 [1f11ba6e] (085/637) Accurately ripped
02 [dd0fd555] (085/637) Accurately ripped
03 [47edfb47] (085/636) Accurately ripped
04 [49565a22] (085/634) Accurately ripped
05 [96729699] (084/632) Accurately ripped
06 [8beccf98] (083/629) Accurately ripped
07 [e022d59e] (084/629) Accurately ripped
08 [c0d2a652] (083/623) Accurately ripped
09 [87430e60] (000/616) No match (V2 was not tested)

Track Peak [ CRC32 ] [W/O NULL] [ LOG ]
– 99,9 [ACED5225] [40465EFE] CRC32
01 96,5 [D704DA7F] [B1A3C3B2]
02 70,0 [2F8D58B0] [AC86D8D3]
03 95,6 [7CF55C3D] [F570439A]
04 99,9 [B98DC428] [88A06637]
05 97,0 [28F51E94] [B687BAD2]
06 98,5 [4277F366] [07022406]
07 91,0 [CB73237D] [65081FD7]
08 97,8 [C3AF7FBE] [E398847D]
09 95,2 [859C04BE] [5CCE8849]

Leonard Cohen - The Future (1992)

All thanks go to the original ripper(s) …

>>> Leonard Cohen in my Blog <<<

Download from icerbox.com: