Subcategories

VA - Leonard Cohen Tribute: Tower Of Song (2017)

Posted By: v3122
VA - Leonard Cohen Tribute: Tower Of Song (2017)

VA - Leonard Cohen Tribute: Tower Of Song (2017)
MP4: AVC, 1280x720 (16:9), 23.976 fps, 4 901 Kbps
AAC LC, 48.0 KHz, 2 ch, 314 Kbps / AC-3, 48.0 KHz, 6 ch, 384 Kbps
Rock, Tribute | 01:28:28 | ~ 3.72 Gb

The family of Leonard Cohen invites fans from around the world to join them, along with renowned musicians the Prime Minister of Canada and the Premier of Quebec in celebrating Cohen s legacy for Tower of Song: A Memorial Tribute to Leonard Cohen at the Bell Centre in Montreal on Nov. 6, 2017
Participating artists include Sting, Elvis Costello, Lana Del Rey, Feist, k.d. lang, Wesley Schultz and Jeremiah Fraites of The Lumineers, Damien Rice, Sting, Patrick Watson, and Adam Cohen
Adam Cohen: My father left me with a list of instructions before he passed: Put me in a pine box next to my mother and father. Have a small memorial for close friends and family in Los Angeles and if you want a public event do it in Montreal.
VA - Leonard Cohen Tribute: Tower Of Song (2017):

Tracklist:

1. Dance Me To End Of Love (Sting)
2. Who By The Fire (Patrick Watson)
3. Hey That's No Way To Say Goodbye (Feist)
4. Democracy (Wesley Schultz et Jeremiah Fraites du groupe The Lumineers)
5. In My Secret Life (Bettye Lavette)
6. The Future (Elvis Costello)
7. So long Marianne (Adam Cohen et The Webb Sisters)
8. Hallelujah (k.d. lang)
9. Tower of Song (Sur vid o C line Dion, Peter Gabriel et Chris Martin)
10. Sisters of Mercy (Sting)
11. Everybody Knows (Courtney Love)
12. Chelsea Hotel (Lana Del Rey et Adam Cohen)
13. Famous Blue Raincoat (Damien Rice)
14. Bird On The Wire (Elvis Costello)
15. The Partisan (Adam Cohen, Damien Rice et Coeur de pirate)
16. You Want It Darker (La voix de Leonard Cohen avec la chorale Shaar Hashomayim)

General
Complete name : W:\UP\Mix\Leonard Cohen Tribute\Leonard Cohen (HQ) - 720p HDTV.mp4
Format : MPEG-4
Format profile : Base Media / Version 2
Codec ID : mp42
File size : 3.47 GiB
Duration : 1h 28mn
Overall bit rate : 5 608 Kbps
Movie name : Tower of Song, Hommage a Leonard Cohen (2017) - 720p HDTV
Encoded date : UTC 2018-01-05 17:48:37
Tagged date : UTC 2018-01-05 17:48:37
Writing application : HandBrake 1.0.3 2017030500

Video
ID : 1
Format : AVC
Format/Info : Advanced Video Codec
Format profile : High@L3.1
Format settings, CABAC : Yes
Format settings, ReFrames : 5 frames
Codec ID : avc1
Codec ID/Info : Advanced Video Coding
Duration : 1h 28mn
Bit rate : 4 901 Kbps
Width : 1 280 pixels
Height : 720 pixels
Display aspect ratio : 16:9
Frame rate mode : Variable
Frame rate : 23.976 fps
Minimum frame rate : 23.974 fps
Maximum frame rate : 23.981 fps
Color space : YUV
Chroma subsampling : 4:2:0
Bit depth : 8 bits
Scan type : Progressive
Bits/(Pixel*Frame) : 0.222
Stream size : 3.03 GiB (87%)
Writing library : x264 core 148 r2748 97eaef2
Encoding settings : cabac=1 / ref=5 / deblock=1:0:0 / analyse=0x3:0x133 / me=umh / subme=10 / psy=1 / psy_rd=1.00:0.00 / mixed_ref=1 / me_range=24 / chroma_me=1 / trellis=2 / 8x8dct=1 / cqm=0 / deadzone=21,11 / fast_pskip=1 / chroma_qp_offset=-2 / threads=12 / lookahead_threads=1 / sliced_threads=0 / nr=0 / decimate=1 / interlaced=0 / bluray_compat=0 / constrained_intra=0 / bframes=5 / b_pyramid=2 / b_adapt=2 / b_bias=0 / direct=3 / weightb=1 / open_gop=0 / weightp=2 / keyint=240 / keyint_min=24 / scenecut=40 / intra_refresh=0 / rc_lookahead=60 / rc=crf / mbtree=1 / crf=10.0 / qcomp=0.60 / qpmin=0 / qpmax=69 / qpstep=4 / vbv_maxrate=17500 / vbv_bufsize=17500 / crf_max=0.0 / nal_hrd=none / filler=0 / ip_ratio=1.40 / aq=1:1.00
Encoded date : UTC 2018-01-05 17:48:37
Tagged date : UTC 2018-01-05 17:48:37
Color primaries : BT.709
Transfer characteristics : BT.709
Matrix coefficients : BT.709

Audio #1
ID : 2
Format : AAC
Format/Info : Advanced Audio Codec
Format profile : LC
Codec ID : 40
Duration : 1h 28mn
Bit rate mode : Constant
Bit rate : 314 Kbps
Channel(s) : 2 channels
Channel positions : Front: L R
Sampling rate : 48.0 KHz
Compression mode : Lossy
Delay relative to video : 83ms
Stream size : 199 MiB (6%)
Title : Stereo
Language : French
Encoded date : UTC 2018-01-05 17:48:37
Tagged date : UTC 2018-01-05 17:48:37

Audio #2
ID : 3
Format : AC-3
Format/Info : Audio Coding 3
Mode extension : CM (complete main)
Format settings, Endianness : Big
Codec ID : ac-3
Duration : 1h 28mn
Bit rate mode : Constant
Bit rate : 384 Kbps
Channel(s) : 6 channels
Channel positions : Front: L C R, Side: L R, LFE
Sampling rate : 48.0 KHz
Bit depth : 16 bits
Compression mode : Lossy
Delay relative to video : 83ms
Stream size : 243 MiB (7%)
Title : Surround
Language : French
Encoded date : UTC 2018-01-05 17:48:37
Tagged date : UTC 2018-01-05 17:48:37

Menu
ID : 4
Codec ID : text
Duration : 1h 28mn
Language : English
Encoded date : UTC 2018-01-05 17:48:37
Tagged date : UTC 2018-01-05 17:48:37
Bit rate mode : VBR

VA - Leonard Cohen Tribute: Tower Of Song (2017)

VA - Leonard Cohen Tribute: Tower Of Song (2017)

VA - Leonard Cohen Tribute: Tower Of Song (2017)

VA - Leonard Cohen Tribute: Tower Of Song (2017)

VA - Leonard Cohen Tribute: Tower Of Song (2017)

VA - Leonard Cohen Tribute: Tower Of Song (2017)

All thanks go to anbelk27

Leonard Cohen or Leonard Cohen in my Blog

Download VA - Leonard Cohen Tribute: Tower Of Song (2017):