Subcategories

Les Voix Humaines - Sainte-Colombe: Concerts a deux violes esgales, Volume 4 (2007)

Posted By: tirexiss
Les Voix Humaines - Sainte-Colombe: Concerts a deux violes esgales, Volume 4 (2007)

Les Voix Humaines - Sainte-Colombe: Concerts a deux violes esgales, Volume 4 (2007)
EAC | FLAC (image+.cue, log) | Covers Included | 01:40:50 | 753 MB
Genre: Classical | Label: ATMA Classique | Catalog: 2278

The popularity of the film Tous les matins du monde (All the Mornings of the World) has revived the fortunes of a shadowy composer named Sainte-Colombe, who was active in the late seventeenth century. The film was largely fictitious, but subsequent research, much of it nicely summarized in the notes to this disc, has shed light on who Sainte-Colombe might have been and has actually backed up some of the guesses made by filmmakers and by novelist Pascal Quignard, on whose book Tous les matins du monde was based. Various viol players have recorded his duets, and the Montreal pair of Susie Napper and Margaret Little, recording here under the name of their larger ensemble Les Voix Humaines, herewith continue a series of Sainte-Colombe's complete works for "deux violes esgales," two equal viols. The music, meditative and deep-voiced, is informatively presented and energetically played. Napper and Little do not accomplish, or attempt, the slightly mystical quality of Jordi Savall's playing on the film soundtrack. But they capture the intimate feeling of dialogue in these duets. These pieces, anywhere from one to eight movements in length, generally begin with an Ouverture that may be as long as the rest of the movements, usually short dances, put together. Each piece takes its name from this opening movement, which, unlike the descriptive pieces of Couperin or Rameau, often has an abstract title referring indirectly to the structure of the music itself. Some of the connections between title and musical qualities here are rather tenuous; the one called Rougeville simply bears the name of a woman who played it well. But each "concert" has the flavor of a unique conversation between two individuals. It is this quality that Napper and Little effectively capture. Their tempos are generally brisk, but each player has space to emerge as an individual. The various discs in this series do not differ drastically from one another, but this is a good one with which to begin the series, or indeed the music of Sainte-Colombe in general.

Les Voix Humaines - Sainte-Colombe: Concerts a deux violes esgales, Volume 4 (2007)

Track List:

CD 1:
Rougeville (LI)
01. 1. (Ouverture) Rougeville [00:04:22]
02. 2. Gigue [00:00:44]
03. 3. Sarabande [00:01:54]
04. 4. En gavote [00:00:33]
05. 5. En gigue [00:00:15]
06. 6. Menuet lent [00:01:20]
07. 7. Pianelle lente [00:01:19]
08. 8. Chacone de Rougeville [00:05:31]

L’estourdy (LII)
09. 1. (Ouverture) (dans la Table- Ballet) [00:01:13]
10. 2. Gigue 1re [00:00:43]
11. 3. Gigue 2e de l’estourdy [00:01:53]
12. 4. Pianelle [00:01:52]

L’aureille (LIII)
13. 1. (Ouverture) L’aureille [00:02:51]
14. 2. Courante 1re [00:01:15]
15. 3. Sarabande [00:01:39]
16. 4. Courante 2e [00:01:19]

La Dubois (LIV)
17. 1. (Ouverture) La Dubois [00:03:49]
18. 2. Gigue 1re (dans la Table: Gigue en bourrasque) [00:02:16]
19. 3. 2e Gigue en bourrasque [00:01:41]
20. 4. Menuet [00:01:09]
21. 5. Chacone Dubois [00:03:58]
22. 6. Gavote [00:01:01]

Le Résolu (LV)
23. 1. (Ouverture) Le Résolu [00:02:30]
24. 2. Gigue [00:01:44]
25. 3. Bourée [00:01:00]

Le Volontaire (LVI)
26. 1. (Ouverture) Le Volontaire [00:03:16]
27. 2. Gigue lente [00:01:10]
28. 3. Menuet [00:00:45]
29. 4. 2e Menuet du Volontaire [00:01:27]

Exact Audio Copy V0.99 prebeta 4 from 23. January 2008

EAC extraction logfile from 21. September 2014, 7:59

Les Voix humaines / Jean de Sainte-Colombe - Concerts a deux violes esgales, Volume IV CD1

Used drive : SONY DVD-ROM DDU1615 Adapter: 0 ID: 0

Read mode : Secure
Utilize accurate stream : Yes
Defeat audio cache : Yes
Make use of C2 pointers : No

Read offset correction : 6
Overread into Lead-In and Lead-Out : No
Fill up missing offset samples with silence : Yes
Delete leading and trailing silent blocks : No
Null samples used in CRC calculations : Yes
Used interface : Native Win32 interface for Win NT & 2000

Used output format : User Defined Encoder
Selected bitrate : 1024 kBit/s
Quality : High
Add ID3 tag : No
Command line compressor : C:\Program Files\REACT\REACT.exe
Additional command line options : REACT %o %s %d "%a" "%g" "%t" "%n" "%x" "%y" "%m" "%e" "%f" "%b" %r


TOC of the extracted CD

Track | Start | Length | Start sector | End sector
––––––––––––––––––––––––––––-
1 | 0:00.00 | 4:22.01 | 0 | 19650
2 | 4:22.01 | 0:44.05 | 19651 | 22955
3 | 5:06.06 | 1:54.58 | 22956 | 31563
4 | 7:00.64 | 0:33.28 | 31564 | 34066
5 | 7:34.17 | 0:15.59 | 34067 | 35250
6 | 7:50.01 | 1:20.25 | 35251 | 41275
7 | 9:10.26 | 1:19.17 | 41276 | 47217
8 | 10:29.43 | 5:31.03 | 47218 | 72045
9 | 16:00.46 | 1:13.21 | 72046 | 77541
10 | 17:13.67 | 0:42.74 | 77542 | 80765
11 | 17:56.66 | 1:53.38 | 80766 | 89278
12 | 19:50.29 | 1:52.38 | 89279 | 97716
13 | 21:42.67 | 2:51.47 | 97717 | 110588
14 | 24:34.39 | 1:15.23 | 110589 | 116236
15 | 25:49.62 | 1:39.40 | 116237 | 123701
16 | 27:29.27 | 1:19.11 | 123702 | 129637
17 | 28:48.38 | 3:49.40 | 129638 | 146852
18 | 32:38.03 | 2:16.69 | 146853 | 157121
19 | 34:54.72 | 1:41.30 | 157122 | 164726
20 | 36:36.27 | 1:09.22 | 164727 | 169923
21 | 37:45.49 | 3:58.67 | 169924 | 187840
22 | 41:44.41 | 1:01.07 | 187841 | 192422
23 | 42:45.48 | 2:30.32 | 192423 | 203704
24 | 45:16.05 | 1:44.70 | 203705 | 211574
25 | 47:01.00 | 1:00.07 | 211575 | 216081
26 | 48:01.07 | 3:16.48 | 216082 | 230829
27 | 51:17.55 | 1:10.41 | 230830 | 236120
28 | 52:28.21 | 0:45.23 | 236121 | 239518
29 | 53:13.44 | 1:27.35 | 239519 | 246078


Range status and errors

Selected range

Filename L:\Ripped by Saoshya\Atma ACD22278 Jean de Sainte-Colombe - Concerts a deux violes esgales, Volume IV (Les Voix humaines)\CDImage 1\Ste-Colombe - Concerts a deux violes esgales, Vol. IV - Les Voix humaines CD1.wav

Peak level 100.0 %
Range quality 99.9 %
Test CRC 675A0829
Copy CRC 675A0829
Copy OK

No errors occurred


AccurateRip summary

Track 1 accurately ripped (confidence 6) [0B95F24E]
Track 2 accurately ripped (confidence 6) [63D0492A]
Track 3 accurately ripped (confidence 6) [9917F1AC]
Track 4 accurately ripped (confidence 6) [1ED66EE4]
Track 5 accurately ripped (confidence 6) [7BB7EB41]
Track 6 accurately ripped (confidence 6) [23E744D1]
Track 7 accurately ripped (confidence 6) [BDFB9737]
Track 8 accurately ripped (confidence 6) [AF71D9A1]
Track 9 accurately ripped (confidence 6) [CD606D2B]
Track 10 accurately ripped (confidence 6) [647F1E32]
Track 11 accurately ripped (confidence 6) [8E8D12F0]
Track 12 accurately ripped (confidence 6) [E140C972]
Track 13 accurately ripped (confidence 6) [F1EE3011]
Track 14 accurately ripped (confidence 6) [2DF49655]
Track 15 accurately ripped (confidence 6) [98646D0B]
Track 16 accurately ripped (confidence 6) [B758E59C]
Track 17 accurately ripped (confidence 6) [C9C88090]
Track 18 accurately ripped (confidence 6) [38CBC568]
Track 19 accurately ripped (confidence 6) [8530B619]
Track 20 accurately ripped (confidence 6) [EDF43CE1]
Track 21 accurately ripped (confidence 6) [DFA285E6]
Track 22 accurately ripped (confidence 6) [67687B59]
Track 23 accurately ripped (confidence 6) [C6F817C9]
Track 24 accurately ripped (confidence 5) [507D1996]
Track 25 accurately ripped (confidence 5) [CA513F40]
Track 26 accurately ripped (confidence 6) [04E838E0]
Track 27 accurately ripped (confidence 6) [5062061C]
Track 28 accurately ripped (confidence 6) [AC22639F]
Track 29 accurately ripped (confidence 6) [C68951A5]

All tracks accurately ripped

End of status report

[CUETools log; Date: 11.11.2017 17:53:07; Version: 2.1.5]
[CTDB TOCID: CiKQywo2OByX.RcjEgHnNimFZVk-] found.
Track | CTDB Status
1 | (11/11) Accurately ripped
2 | (11/11) Accurately ripped
3 | (11/11) Accurately ripped
4 | (11/11) Accurately ripped
5 | (11/11) Accurately ripped
6 | (11/11) Accurately ripped
7 | (11/11) Accurately ripped
8 | (11/11) Accurately ripped
9 | (11/11) Accurately ripped
10 | (11/11) Accurately ripped
11 | (11/11) Accurately ripped
12 | (11/11) Accurately ripped
13 | (11/11) Accurately ripped
14 | (11/11) Accurately ripped
15 | (11/11) Accurately ripped
16 | (11/11) Accurately ripped
17 | (11/11) Accurately ripped
18 | (11/11) Accurately ripped
19 | (11/11) Accurately ripped
20 | (11/11) Accurately ripped
21 | (11/11) Accurately ripped
22 | (11/11) Accurately ripped
23 | (11/11) Accurately ripped
24 | (11/11) Accurately ripped
25 | (11/11) Accurately ripped
26 | (11/11) Accurately ripped
27 | (11/11) Accurately ripped
28 | (11/11) Accurately ripped
29 | (11/11) Accurately ripped
[AccurateRip ID: 0038f34c-049d7de5-940cd11d] found.
Track [ CRC | V2 ] Status
01 [0b95f24e|5abd77a2] (07+09/16) Accurately ripped
02 [63d0492a|9fe6281f] (07+09/16) Accurately ripped
03 [9917f1ac|27e7fe94] (07+09/16) Accurately ripped
04 [1ed66ee4|945d4e06] (07+09/16) Accurately ripped
05 [7bb7eb41|d22918e8] (07+09/16) Accurately ripped
06 [23e744d1|1956d46d] (07+09/16) Accurately ripped
07 [bdfb9737|57869258] (07+09/16) Accurately ripped
08 [af71d9a1|fdaadde1] (07+09/16) Accurately ripped
09 [cd606d2b|fa49ef07] (07+09/16) Accurately ripped
10 [647f1e32|17d7987b] (07+09/16) Accurately ripped
11 [8e8d12f0|9a4b287b] (07+09/16) Accurately ripped
12 [e140c972|8693b2d2] (07+09/16) Accurately ripped
13 [f1ee3011|e8b80dfa] (07+09/16) Accurately ripped
14 [2df49655|46710fc6] (07+09/16) Accurately ripped
15 [98646d0b|799ee958] (07+09/16) Accurately ripped
16 [b758e59c|f0860422] (07+09/16) Accurately ripped
17 [c9c88090|2712d6d4] (07+09/16) Accurately ripped
18 [38cbc568|b77dafce] (07+09/16) Accurately ripped
19 [8530b619|11bf7a02] (07+09/16) Accurately ripped
20 [edf43ce1|5927e078] (07+09/16) Accurately ripped
21 [dfa285e6|63342b08] (07+09/16) Accurately ripped
22 [67687b59|110ee3af] (07+09/16) Accurately ripped
23 [c6f817c9|6c434593] (07+09/16) Accurately ripped
24 [507d1996|eba3445a] (06+09/15) Accurately ripped
25 [ca513f40|c1f365f2] (06+09/15) Accurately ripped
26 [04e838e0|fd6902ce] (07+09/16) Accurately ripped
27 [5062061c|02c36f1f] (07+09/16) Accurately ripped
28 [ac22639f|61f45b9d] (07+09/16) Accurately ripped
29 [c68951a5|6ea0c764] (07+09/16) Accurately ripped

Track Peak [ CRC32 ] [W/O NULL] [ LOG ]
– 100,0 [675A0829] [6C58F8C0] CRC32
01 95,9 [2D615BD5] [C8F6611A]
02 93,7 [D6C21C30] [F0978714]
03 75,1 [886E93E4] [FA1C0D84]
04 100,0 [187113E5] [90EEE7DA]
05 44,4 [3F10E7F7] [68908668]
06 100,0 [4F093457] [61144402]
07 100,0 [7CADD034] [08CCB341]
08 100,0 [18A6C6B7] [3F736451]
09 83,0 [8F4F86CF] [A5A2E7D5]
10 89,7 [A4673A72] [441311AE]
11 100,0 [373EE298] [EE57D8B2]
12 100,0 [CC57F90E] [DFD578A5]
13 95,7 [E3F93395] [8AB0019D]
14 100,0 [94DAD227] [A9215349]
15 91,7 [9C098D6D] [71BE516B]
16 78,9 [F4CC2B4C] [83DE21CF]
17 68,9 [F6424D3B] [E028464C]
18 66,7 [1EE9AC2E] [01D20C45]
19 62,1 [C747B575] [06BDD09B]
20 62,0 [774EE1CC] [A5941AF4]
21 66,7 [85CDB87F] [674F357E]
22 59,9 [C1C5A603] [809BC972]
23 100,0 [E251163B] [9C42E1F9]
24 100,0 [FB4E0F2E] [90FFD27C]
25 71,8 [1231BDD7] [AF2D8A81]
26 88,7 [2FC0D5A6] [5BBCC00C]
27 86,7 [A3B6525F] [2DC9B66F]
28 72,7 [51E2CE6F] [9A6DFDF4]
29 82,6 [3ACDBCD8] [24D37BEC]

CD 2:
Les menuets (LVII)
01. 1. (Ouverture) (dans la Table: Petite ouverture) [00:01:53]
02. 2. 1er menuet [00:00:58]
03. 3. 2e menuet [00:00:47]
04. 4. 3e menuet [00:01:27]

Les Roulades (LVIII)
05. 1. (Ouverture) Les Roulades [00:02:09]
06. 2. Gigue en bourrasque [00:01:46]

Le précipité (LIX)
07. 1. (Ouverture) Le précipité [00:01:41]
08. 2. Gigue [00:00:38]

09. Le majestueux (LX) [00:04:27]
10. Le varié (LXI) [00:03:03]
11. La boutade (LXII) [00:06:09]
12. Le Constant (LXIII) [00:03:34]

Le Réglé (LXIV)
13. 1. (Ouverture) Le Réglé [00:05:08]
14. 2. Gavote [00:00:54]

L’égal (LXV)
15. 1. (Ouverture) L’égal [00:01:41]
16. 2. Gigue [00:01:43]

17. L’infidelle (LXVI) [00:03:50]
18. Le figuré (LXVII) [00:04:12]

Exact Audio Copy V0.99 prebeta 4 from 23. January 2008

EAC extraction logfile from 21. September 2014, 8:20

Les Voix humaines / Jean de Sainte-Colombe - Concerts a deux violes esgales, Volume IV CD2

Used drive : SONY DVD-ROM DDU1615 Adapter: 0 ID: 0

Read mode : Secure
Utilize accurate stream : Yes
Defeat audio cache : Yes
Make use of C2 pointers : No

Read offset correction : 6
Overread into Lead-In and Lead-Out : No
Fill up missing offset samples with silence : Yes
Delete leading and trailing silent blocks : No
Null samples used in CRC calculations : Yes
Used interface : Native Win32 interface for Win NT & 2000

Used output format : User Defined Encoder
Selected bitrate : 1024 kBit/s
Quality : High
Add ID3 tag : No
Command line compressor : C:\Program Files\REACT\REACT.exe
Additional command line options : REACT %o %s %d "%a" "%g" "%t" "%n" "%x" "%y" "%m" "%e" "%f" "%b" %r


TOC of the extracted CD

Track | Start | Length | Start sector | End sector
––––––––––––––––––––––––––––-
1 | 0:00.00 | 1:53.37 | 0 | 8511
2 | 1:53.37 | 0:58.33 | 8512 | 12894
3 | 2:51.70 | 0:47.29 | 12895 | 16448
4 | 3:39.24 | 1:27.57 | 16449 | 23030
5 | 5:07.06 | 2:09.47 | 23031 | 32752
6 | 7:16.53 | 1:46.14 | 32753 | 40716
7 | 9:02.67 | 1:41.19 | 40717 | 48310
8 | 10:44.11 | 0:38.23 | 48311 | 51183
9 | 11:22.34 | 4:27.01 | 51184 | 71209
10 | 15:49.35 | 3:03.47 | 71210 | 84981
11 | 18:53.07 | 6:09.61 | 84982 | 112717
12 | 25:02.68 | 3:34.07 | 112718 | 128774
13 | 28:37.00 | 5:08.00 | 128775 | 151874
14 | 33:45.00 | 0:54.01 | 151875 | 155925
15 | 34:39.01 | 1:41.28 | 155926 | 163528
16 | 36:20.29 | 1:43.53 | 163529 | 171306
17 | 38:04.07 | 3:50.15 | 171307 | 188571
18 | 41:54.22 | 4:12.58 | 188572 | 207529


Range status and errors

Selected range

Filename L:\Ripped by Saoshya\Atma ACD22278 Jean de Sainte-Colombe - Concerts a deux violes esgales, Volume IV (Les Voix humaines)\CDImage 2\Ste-Colombe - Concerts a deux violes esgales, Vol. IV - Les Voix humaines CD2.wav

Peak level 100.0 %
Range quality 100.0 %
Test CRC 75BBC125
Copy CRC 75BBC125
Copy OK

No errors occurred


AccurateRip summary

Track 1 accurately ripped (confidence 6) [60F30A1F]
Track 2 accurately ripped (confidence 6) [2B2231B1]
Track 3 accurately ripped (confidence 6) [D1915BB2]
Track 4 accurately ripped (confidence 6) [1ADC8F4A]
Track 5 accurately ripped (confidence 6) [A697EA56]
Track 6 accurately ripped (confidence 6) [DE73B701]
Track 7 accurately ripped (confidence 6) [96228F0A]
Track 8 accurately ripped (confidence 6) [CBB8A4A5]
Track 9 accurately ripped (confidence 6) [9864B0F4]
Track 10 accurately ripped (confidence 6) [8CE42415]
Track 11 accurately ripped (confidence 6) [95CBFE2D]
Track 12 accurately ripped (confidence 6) [AF4E98DE]
Track 13 accurately ripped (confidence 6) [62CDB37F]
Track 14 accurately ripped (confidence 6) [4E0A91A1]
Track 15 accurately ripped (confidence 6) [EA19A3DE]
Track 16 accurately ripped (confidence 6) [FB643158]
Track 17 accurately ripped (confidence 6) [C9103EA6]
Track 18 accurately ripped (confidence 6) [C3F65521]

All tracks accurately ripped

End of status report

[CUETools log; Date: 11.11.2017 17:53:27; Version: 2.1.5]
[CTDB TOCID: p9jGCj30uipeidhdlst0Fv32Fkg-] found.
Track | CTDB Status
1 | (12/12) Accurately ripped
2 | (12/12) Accurately ripped
3 | (12/12) Accurately ripped
4 | (12/12) Accurately ripped
5 | (12/12) Accurately ripped
6 | (12/12) Accurately ripped
7 | (12/12) Accurately ripped
8 | (12/12) Accurately ripped
9 | (12/12) Accurately ripped
10 | (12/12) Accurately ripped
11 | (12/12) Accurately ripped
12 | (12/12) Accurately ripped
13 | (12/12) Accurately ripped
14 | (12/12) Accurately ripped
15 | (12/12) Accurately ripped
16 | (12/12) Accurately ripped
17 | (12/12) Accurately ripped
18 | (12/12) Accurately ripped
[AccurateRip ID: 00197c84-0167a6cc-db0acf12] found.
Track [ CRC | V2 ] Status
01 [60f30a1f|9f53c247] (07+09/16) Accurately ripped
02 [2b2231b1|18e7ed3c] (07+09/16) Accurately ripped
03 [d1915bb2|b0213dfe] (07+09/16) Accurately ripped
04 [1adc8f4a|958c4e32] (07+09/16) Accurately ripped
05 [a697ea56|2b4b53cf] (07+09/16) Accurately ripped
06 [de73b701|5b2190ed] (07+09/16) Accurately ripped
07 [96228f0a|c53f22ac] (07+09/16) Accurately ripped
08 [cbb8a4a5|ccd18cc0] (07+09/16) Accurately ripped
09 [9864b0f4|c86000f3] (07+09/16) Accurately ripped
10 [8ce42415|01f0d0f1] (07+09/16) Accurately ripped
11 [95cbfe2d|e066239e] (07+09/16) Accurately ripped
12 [af4e98de|5ad7a206] (07+09/16) Accurately ripped
13 [62cdb37f|1ab2bd3e] (07+09/16) Accurately ripped
14 [4e0a91a1|c0b164e0] (07+09/16) Accurately ripped
15 [ea19a3de|c491a984] (07+09/16) Accurately ripped
16 [fb643158|fbedef55] (07+09/16) Accurately ripped
17 [c9103ea6|bb3a2bd8] (07+09/16) Accurately ripped
18 [c3f65521|62b52fa6] (07+09/16) Accurately ripped

Track Peak [ CRC32 ] [W/O NULL] [ LOG ]
– 100,0 [75BBC125] [4E60FDB2] CRC32
01 84,9 [3B29E912] [EEC457F6]
02 77,7 [8FED31E0] [4764A4AE]
03 81,7 [0398A48C] [BA1BB33B]
04 78,6 [F374FE62] [6847F72C]
05 100,0 [7503FA36] [E9291B83]
06 80,1 [4B632FDD] [F4696278]
07 98,0 [C57B35E3] [0287DA1D]
08 83,6 [6EF5A651] [71A9AFAC]
09 100,0 [59B2D0E3] [19584F04]
10 100,0 [AE252418] [1DE7195E]
11 100,0 [4656672A] [F4E98A96]
12 95,1 [F8A1AAA0] [D900B25C]
13 100,0 [2F2F0CD6] [B6FBBD75]
14 96,4 [FBA29AB1] [A5370D1C]
15 100,0 [C23AA637] [53B443D3]
16 100,0 [52BB4C14] [A24F68E3]
17 100,0 [CA33F6E5] [27F744FA]
18 100,0 [893007B5] [06E25C3C]

Performers:
Les Voix Humaines
Susie Napper
Margaret Little

Thanks to the Original ripper (unknown)!

Download: