Subcategories

Les Paul & Friends - A Tribute To A Legend (2008)

Posted By: jclane

Les Paul & Friends - A Tribute To A Legend (2008)

Les Paul & Friends - A Tribute To A Legend (2008)
EAC Rip | FLAC Image + Cue + Log -> 355.5 MB | Full Covers -> 21.3 MB | RAR 3% Recovery
Label: Immergent | Catalog#: 281148-2 | Genre: Rock, Blues, Jazz, Funk

Something of a companion piece to the 2005 Les Paul & Friends album American Made World Played, A Tribute to a Legend again finds contemporary rock musicians playing on tracks that, in most cases, also feature Paul himself. The guitarist was 93-years-old on the day the album was released, and it isn't clear how much he participated on the seven out of ten tracks on which he is credited. The term "tribute" does not suggest what the naïve potential consumer might suppose. As Slash (whose contribution, "Vocalese," does not feature Paul) puts it in his liner notes, "This is a record where instead of playing Les Paul's music & trying to imitate his inimitable style, it is a showcase of guitar players doing their own thing, but in tribute to his influence on our musicianship, techniques & use of effects." So, guitarists including the late Hiram Bullock (for whom these were his last sessions before his death on July 25, 2008), Jeff Golub, Joe Perry, Johnny Rzeznik, and Richie Sambora play, and Rzeznik, Sambora, Lisa Fischer, Mick Hucknall, and Joan Osborne sing a variety of pop/rock, blues, and funk songs, among them selections by U2 ("All I Want Is You") and Ace ("How Long"). It's more a tribute to the Les Paul guitar than to Les Paul the musician, but there is some effective string bending all the same.

by William Ruhlmann - Allmusic

Track Listing

1. The Good Luck You're Having (with Joe Bonamassa) - 4:41

2. The Walls Came Tumbling Down (with Hiram Bullock) - 4:15

3. I Don't Want To Be With Nobody But You (with Joan Osborne) - 3:53

4. All I Want Is You (with Johnny Rzeznik) - 4:44

5. Slippin' Into Darkness (with Lisa Fischer) - 7:24

6. 69 Freedom Special (Les Paul And Friends) - 5:47

7. Vocalise (with Slash) - 5:02

8. I Love You More Than You'll Ever Know (with Mick Hucknall) - 6:46

9. How Long (with Jeff Golub) - 5:46

10. Great Hall Of Fame (with Richie Sambora) - 5:39

Les Paul & Friends - A Tribute To A Legend (2008)



Exact Audio Copy V0.99 prebeta 4 from 23. January 2008

Отчёт EAC об извлечении, выполненном 21. декабря 2008, 12:39

Les Paul & Friends / A Tribute to a Legend

Дисковод: Optiarc DVD RW AD-7173S Adapter: 2 ID: 0

Режим чтения : Достоверность
Использование точного потока : Да
Отключение кэша аудио : Да
Использование указателей C2 : Нет

Коррекция смещения при чтении : 48
Способность читать области Lead-in и Lead-out : Нет
Заполнение пропущенных сэмплов тишиной : Да
Удаление блоков с тишиной в начале и конце : Нет
При вычислениях CRC использовались нулевые сэмплы : Да
Интерфейс : Установленный внешний ASPI-интерфейс

Выходной формат : Пользовательский кодировщик
Выбранный битрейт : 768 kBit/s
Качество : Высокий
Добавление ID3-тэга : Нет
Утилита сжатия : C:\Program Files\Exact Audio Copy\Flac\flac.exe
Дополнительные параметры : -8 -V %s -o %d


TOC извлечённого CD

Трек | Старт | Длительность | Начальный сектор | Конечный сектор
––––––––––––––––––––––––––––––––––-
1 | 0:00.00 | 4:40.48 | 0 | 21047
2 | 4:40.48 | 4:14.54 | 21048 | 40151
3 | 8:55.27 | 3:53.18 | 40152 | 57644
4 | 12:48.45 | 4:43.35 | 57645 | 78904
5 | 17:32.05 | 7:23.54 | 78905 | 112183
6 | 24:55.59 | 5:47.12 | 112184 | 138220
7 | 30:42.71 | 5:01.30 | 138221 | 160825
8 | 35:44.26 | 6:45.71 | 160826 | 191271
9 | 42:30.22 | 5:44.73 | 191272 | 217144
10 | 48:15.20 | 5:39.62 | 217145 | 242631


Характеристики диапазона извлечения и сообщения об ошибках

Выбранный диапазон

Имя файла G:\My Docs 2\My Music 2\Les Paul & Friends - A Tribute to a Legend\Les Paul & Friends - A Tribute to a Legend.wav

Пиковый уровень 96.5 %
Качество диапазона 100.0 %
CRC копии 96C383FD
Копирование… OK

Ошибок не произошло


AccurateRip: сводка

Трек 1 нет в базе данных
Трек 2 нет в базе данных
Трек 3 нет в базе данных
Трек 4 нет в базе данных
Трек 5 нет в базе данных
Трек 6 нет в базе данных
Трек 7 нет в базе данных
Трек 8 нет в базе данных
Трек 9 нет в базе данных
Трек 10 нет в базе данных

Ни одного трека нет в базе AccurateRip

Конец отчёта


Credits

*Produced by Bob Cutareila and Fran Cathcart
*Associate producers - Phil Quartararo and Steve Zuckerman
*Executive Producers - John Trickett and David A. Helfant, A&R-David A. Helfant
*Photos - Bob Cutareila
*Cover Art & Booklet Design - Mel Canlas
*Project Coordination - David K. Tedds & Jon Burk
*Production Assistant - Christopher Mongieilo


Release Date: Sep 30, 2008
Format: CD, Album, Tribute
Length: 53:55
Producer: Bob Cutareila and Fran Cathcart

__________________________________________


Source: Torrent / Original uploader: funny_horse


Download

Filesonic Folder | Wupload Folder

password: jcl4n3

The files are interchangeable!

If any of the links are dead, please send me a private message.

No Mirrors Please!!!


"Music has charms to soothe the savage breast" …Visit my Blog