Subcategories

Leslie Howard - Tchaikovsky: Piano Sonatas (1997)

Posted By: tirexiss
Leslie Howard - Tchaikovsky: Piano Sonatas (1997)

Leslie Howard - Tchaikovsky: Piano Sonatas (1997)
EAC | FLAC (image+.cue, log) | Covers Included | 01:07:32 | 216 MB
Genre: Classical | Label: Hyperion | Catalog: 66939

Tchaikovsky only wrote one "official" piano sonata, the Grande Sonate in G major, Op. 37, but when he was a student at the St. Petersburg Conservatory, he began an Allegro in F minor and completed a full sonata in C sharp minor, published posthumously as Op. 80. Leslie Howard, in the midst of his enormous Franz Liszt project, recorded all three works for Hyperion. Howard fleshed out the Allegro into a complete sonata allegro movement. The result is a movement that is solid, structurally and musically, much meatier than the Tchaikovsky character pieces that are more often heard, but still an immature work for the composer. It has dramatic tension that is relieved only momentarily, and never completely, in the development. The writing is fairly dense – melodies are frequently played in octave – Schumann-esque, and not as interesting as its ominous nature. The full sonata in C sharp minor also sounds less than mature for the composer, and borrows not only from Schumann, but Beethoven as well. In many ways, it does sounds like a work where Tchaikovsky was trying out larger, orchestral ideas, which would explain his re-using the Scherzo's theme in his First Symphony. Howard's playing doesn't quite bring out the orchestral colors, but the way Tchaikovsky constructs the tension and emotion of each movement helps evoke them. The second movement is an interesting construction of nocturnal, pensive melodic ideas and minimal, almost independent, accompanimental ideas. Howard gives it a delicate shading that suits it well. The Scherzo leads into the final movement, which receives the most criticism for its lack of Tchaikovsky's usual gift for melody, its relative lack of compelling emotion or drama, and an overall tendency toward empty ostentation. The Sonata, Op. 37, has even more in common with Tchaikovsky's symphonies and concertos than the C sharp Sonata, and is much more maturely constructed, if still more orchestral than pianistic. The Andante in particular – another somewhat thoughtful movement that also has a bit of tension – is concisely and effectively composed. The syncopation of the Scherzo is as attention grabbing as the opening chords of the finale. Howard is, as always, extremely thorough in his scholarship of these works, but also extremely musical in his execution of the music, putting it in the best light possible and passing on an excitement for Tchaikovsky's sonatas despite any shortcomings they may have.

Leslie Howard - Tchaikovsky: Piano Sonatas (1997)

Track List:

01. Tchaikovsky‧Sonata No.1 in F minor [0:10:51.63]
02. Tchaikovsky‧Sonata No.2 in C sharp minor Op.80:I. Allegro con fuoco [0:08:48.42]
03. Tchaikovsky‧Sonata No.2 in C sharp minor Op.80:II. Andante [0:05:58.15]
04. Tchaikovsky‧Sonata No.2 in C sharp minor Op.80:III. Scherzo:Allegro vivo [0:06:04.03]
05. Tchaikovsky‧Sonata No.2 in C sharp minor Op.80:IV. Allegro vivo [0:06:22.47]
06. Tchaikovsky‧Grand Sonata No.3 in G major Op.37:I. Moderato e risoluto [0:11:16.00]
07. Tchaikovsky‧Grand Sonata No.3 in G major Op.37:II. Andante non troppo quasi moderato [0:08:51.30]
08. Tchaikovsky‧Grand Sonata No.3 in G major Op.37:III. Scherzo:Allegro giocoso [0:02:54.35]
09. Tchaikovsky‧Grand Sonata No.3 in G major Op.37:IV. Finale:Allegro vivace [0:06:25.10]

Performers:
Leslie Howard - piano

Exact Audio Copy V1.0 beta 3 from 29. August 2011

EAC extraction logfile from 2. May 2014, 9:50

Leslie Howard / Tchaikovsky - Piano Sonatas - Leslie Howard

Used drive : TSSTcorpCDDVDW SH-222BB Adapter: 2 ID: 1

Read mode : Secure
Utilize accurate stream : Yes
Defeat audio cache : Yes
Make use of C2 pointers : No

Read offset correction : 6
Overread into Lead-In and Lead-Out : No
Fill up missing offset samples with silence : Yes
Delete leading and trailing silent blocks : No
Null samples used in CRC calculations : Yes
Used interface : Native Win32 interface for Win NT & 2000

Used output format : User Defined Encoder
Selected bitrate : 896 kBit/s
Quality : High
Add ID3 tag : No
Command line compressor : C:\Program Files\Exact Audio Copy\FLAC\FLAC.EXE
Additional command line options : -8 -V -T "TITLE=%title%" -T "ARTIST=%artist%" -T "ALBUMARTIST=%albumartist%" -T "ALBUM=%albumtitle%" -T "DATE=%year%" -T "TRACKNUMBER=%tracknr%" -T "TRACKTOTAL=%numtracks%" -T "GENRE=%genre%" -T "COMMENT=%comment%" -T "PERFORMER=%albuminterpret%" -T "COMPOSER=%composer%" %source% -o %dest%


TOC of the extracted CD

Track | Start | Length | Start sector | End sector
––––––––––––––––––––––––––––-
1 | 0:00.32 | 10:51.63 | 32 | 48919
2 | 10:52.20 | 8:48.42 | 48920 | 88561
3 | 19:40.62 | 5:58.15 | 88562 | 115426
4 | 25:39.02 | 6:04.03 | 115427 | 142729
5 | 31:43.05 | 6:22.47 | 142730 | 171426
6 | 38:05.52 | 11:16.00 | 171427 | 222126
7 | 49:21.52 | 8:51.30 | 222127 | 261981
8 | 58:13.07 | 2:54.35 | 261982 | 275066
9 | 61:07.42 | 6:25.10 | 275067 | 303951


Range status and errors

Selected range

Filename E:\4000\[4051] Tchaikovsky – Piano Sonatas – Leslie Howard\Tchaikovsky - Piano Sonatas - Leslie Howard.wav

Peak level 89.7 %
Extraction speed 2.2 X
Range quality 99.9 %
Test CRC AF81D963
Copy CRC AF81D963
Copy OK

No errors occurred


AccurateRip summary

Track 1 accurately ripped (confidence 5) [1F573050] (AR v1)
Track 2 accurately ripped (confidence 5) [B429E7B7] (AR v1)
Track 3 accurately ripped (confidence 5) [A476C428] (AR v1)
Track 4 accurately ripped (confidence 5) [169F70E6] (AR v1)
Track 5 accurately ripped (confidence 5) [F30CFB9C] (AR v1)
Track 6 accurately ripped (confidence 5) [5D6FA4AB] (AR v1)
Track 7 accurately ripped (confidence 5) [7E046116] (AR v1)
Track 8 accurately ripped (confidence 5) [43DD4577] (AR v1)
Track 9 accurately ripped (confidence 5) [1DA0E220] (AR v1)

All tracks accurately ripped

End of status report

==== Log checksum 8AA385AA7C0F822E6D02E56B4E589241823B33CE465527CC91B87D4C4621CF8D ====

Thanks to the Original ripper (unknown)!

Welcome to my blog!

Download: