Subcategories

Lights Out Asia - Garmonia (2003)

Posted By: Designol
Lights Out Asia - Garmonia (2003)

Lights Out Asia - Garmonia (2003)
EAC | FLAC | Image (Cue&Log) ~ 518 Mb | Mp3 (CBR320) ~ 209 Mb | Scans included
Label: Sun Sea Sky Productions | # SSS024 | Time: 01:16:59
Post Rock, Space Rock, Ambient, Downtempo, Shoegaze

Lights Out Asia came from the ashes of Wisconsin post-rock group Aurora Rein. Two of it's members, Chris Schafer and Mike Ystad, started to create music in their free time that was less 'rock', utilized more electronic elements, and had a greater depth of emotion. These songs became Light Out Aisa's debut album Garmonia. A debut that was in its day a solidly fleshed out blueprint of the music they are still making over 9 years later. LEFT OF THE DIAL called the album “stunning”, Taste Like Chicken said “Garmonia is a middle-of-the-night car ride soundtrack”. Highly, highly recommended!

Lights Out Asia - Garmonia (2003)



Tracklist:

01. Knock Knock (05:19)
02. You're All On Display (04:17)
03. Chapters Of A Red Sky (09:23)
04. Promontory/Cemetary (07:30)
05. Absence Of Oceans (08:10)
06. Hail Russia (06:40)
07. RАРМόНИЯ (08:41)
08. Farewell, Humphrey Bogart (03:28)
09. Sigil (07:09)
10. God Help Us (05:14)
11. Not Every Day's A Victory (10:56)
12. Untitled (00:05)


Exact Audio Copy V1.0 beta 3 from 29. August 2011

Отчёт EAC об извлечении, выполненном 10. марта 2015, 19:02

Lights Out Asia / Garmonia

Дисковод: Optiarc DVD RW AD-7260S Adapter: 2 ID: 1

Режим чтения : Достоверность
Использование точного потока : Да
Отключение кэша аудио : Да
Использование указателей C2 : Нет

Коррекция смещения при чтении : 48
Способность читать области Lead-in и Lead-out : Нет
Заполнение пропущенных сэмплов тишиной : Да
Удаление блоков с тишиной в начале и конце : Нет
При вычислениях CRC использовались нулевые сэмплы : Да
Интерфейс : Встроенный Win32-интерфейс для Win NT/2000

Выходной формат : Пользовательский кодировщик
Выбранный битрейт : 1024 kBit/s
Качество : Высокий
Добавление ID3-тега : Нет
Утилита сжатия : C:\Program Files\Exact Audio Copy\FLAC\FLAC.EXE
Дополнительные параметры : -6 -V -T "ARTIST=%artist%" -T "TITLE=%title%" -T "ALBUM=%albumtitle%" -T "DATE=%year%" -T "TRACKNUMBER=%tracknr%" -T "GENRE=%genre%" -T "COMMENT=%comment%" -T "BAND=%albuminterpret%" -T "ALBUMARTIST=%albuminterpret%" -T "COMPOSER=%composer%" %haslyrics%–tag-from-file=LYRICS="%lyricsfile%"%haslyrics% -T "DISCNUMBER=%cdnumber%" -T "TOTALDISCS=%totalcds%" -T "TOTALTRACKS=%numtracks%" %hascover%–picture="%coverfile%"%hascover% %source% -o %dest%


TOC извлечённого CD

Трек | Старт | Длительность | Начальный сектор | Конечный сектор
––––––––––––––––––––––––––––––––––-
1 | 0:00.00 | 5:19.55 | 0 | 23979
2 | 5:19.55 | 4:17.62 | 23980 | 43316
3 | 9:37.42 | 9:23.27 | 43317 | 85568
4 | 19:00.69 | 7:30.23 | 85569 | 119341
5 | 26:31.17 | 8:10.28 | 119342 | 156119
6 | 34:41.45 | 6:40.45 | 156120 | 186164
7 | 41:22.15 | 8:41.73 | 186165 | 225312
8 | 50:04.13 | 3:28.58 | 225313 | 240970
9 | 53:32.71 | 7:09.58 | 240971 | 273203
10 | 60:42.54 | 5:14.18 | 273204 | 296771
11 | 65:56.72 | 10:56.36 | 296772 | 346007
12 | 76:53.33 | 0:05.42 | 346008 | 346424


Характеристики диапазона извлечения и сообщения об ошибках

Выбранный диапазон

Имя файла C:\Users\mesh33\FLAC\Lights Out Asia - Garmonia.wav

Пиковый уровень 96.6 %
Скорость извлечения 4.5 X
Качество диапазона 100.0 %
CRC теста 464B5419
CRC копии 464B5419
Копирование… OK

Ошибок не произошло


AccurateRip: сводка

Трек 1 : извлечено точно (доверие 3) [FA9D1744] (AR v2)
Трек 2 : извлечено точно (доверие 3) [543C73D4] (AR v2)
Трек 3 : извлечено точно (доверие 3) [53A07B32] (AR v2)
Трек 4 : извлечено точно (доверие 3) [334AB887] (AR v2)
Трек 5 : извлечено точно (доверие 3) [70883D30] (AR v2)
Трек 6 : извлечено точно (доверие 3) [EAE73DC0] (AR v2)
Трек 7 : извлечено точно (доверие 3) [7D67C0C4] (AR v2)
Трек 8 : извлечено точно (доверие 3) [CD02B297] (AR v2)
Трек 9 : извлечено точно (доверие 3) [3657B1CF] (AR v2)
Трек 10 : извлечено точно (доверие 3) [E5684EB4] (AR v2)
Трек 11 : извлечено точно (доверие 3) [8B32AAC3] (AR v2)
Трек 12 отсутствует в базе данных

11 трек(и) скопированы точно
1 трек(и) не содержатся в базе AccurateRip

Некоторые треки не прошли проверку на точность

Конец отчёта

foobar2000 1.2 / Dynamic Range Meter 1.1.1
log date: 2015-11-04 15:08:46

––––––––––––––––––––––––––––––––––––––––
Analyzed: / Garmonia
––––––––––––––––––––––––––––––––––––––––

DR Peak RMS Duration Track
––––––––––––––––––––––––––––––––––––––––
DR6 -0.31 dB -7.53 dB 5:20 01-Knock Knock
DR7 -0.31 dB -9.40 dB 4:18 02-You're All On Display
DR7 -0.31 dB -8.95 dB 9:23 03-Chapters Of A Red Sky
DR5 -0.31 dB -7.39 dB 7:30 04-Promontory/Cemetary
DR7 -0.31 dB -9.24 dB 8:10 05-Absence Of Oceans
DR5 -0.30 dB -5.88 dB 6:41 06-Hail Russia
DR6 -0.31 dB -8.33 dB 8:42 07-Garmonia
DR5 -0.31 dB -7.04 dB 3:29 08-Farewell, Humphrey Bogart
DR6 -0.31 dB -7.34 dB 7:10 09-Sigil
DR6 -0.30 dB -8.70 dB 5:14 10-God Help Us
DR6 -0.30 dB -10.07 dB 10:56 11-Not Every Day's A Victory
DR0 -90.31 dB -90.31 dB 0:06 12-
––––––––––––––––––––––––––––––––––––––––

Number of tracks: 12
Official DR value: DR5

Samplerate: 44100 Hz
Channels: 2
Bits per sample: 16
Bitrate: 881 kbps
Codec: FLAC
================================================================================

Lights Out Asia - Garmonia (2003)

Lights Out Asia - Garmonia (2003)

All thanks to original releaser - mesh33

More interesting music in My Blog