Subcategories

Lindisfarne - Back And Fourth (1978) [Air Mail Archive AIRAC-1377, Japan]

Posted By: v3122
Lindisfarne - Back And Fourth (1978) [Air Mail Archive AIRAC-1377, Japan]

Lindisfarne - Back And Fourth (1978)
EAC | Flac(Image) + Cue + Log & MP3 CBR 320Kbps
2007 | Air Mail Archive AIRAC-1377 | ~ 297 or 106 Mb | Scans(jpg) -> 54 Mb
Folk Rock

This was the band's comeback album after a fairly dire patch in the mid-'70s. The fact is, Back and Fourth (originally issued by Polygram) isn't really that good a record, lacking the imagination and spirit of experimentation that highlighted their early albums for Charisma. But at its best, it was smoothly commercial, standing next to those earlier albums roughly where the Bee Gees' early disco stuff stood next to material like Odessa. And it was a success, mostly thanks to the presence of Alan Hull's best song to date, the Springsteen-like "Run for Home." With its original lineup back together, Lindisfarne went for the gold this time, building their music on folk-like melodies (and a distinctly American sound, at that), country-type hooks ("King's Cross Blues"), and pleasing harmonies, exemplified by "Warm Feeling," where the group sounds like an earthier, edgier Firefall. Alan Hull's writing also took on a trans-Atlantic character – gone was the distinct English character of songs like "Fog on the Tyne," and in its place was a poppier American sound, with some brief, embarrassing digressions into funky R&B ("Get Wise"). "Woman," whose subject is no more ambitious than its title, would have been an embarrassment to Lindisfarne during the early '70s, but it was the kind of sound that didn't offend radio programmers, and "Run for Home" became a familiar track on FM radio even in America, where the band had scarcely made any impression in earlier years. Producer Gus Dudgeon kept the instrumentation simple and the sound pretty much rooted in midtempo rock, and the result was a pleasing collection of new tunes.

by Bruce Eder, allmusic
Lindisfarne - Back And Fourth (1978):

Lindisfarne - Back And Fourth (1978) [Air Mail Archive AIRAC-1377, Japan]

Tracklist:

01. Juke Box Gypsy
02. Warm Feeling
03. Woman
04. Only Alone
05. Run For Home
06. Kings Cross Blues
07. Get Wise
08. You And Me
09. Marshall Riley’s Army
10. Angels At Eleven
11. Make Me Want To Stay
Bonus Tracks:
12. Stick Together
13. Brand New Day

Musicians:

Acoustic Guitar, Piano, Vocals – Alan Hull
Bass Guitar [Fretless], Fiddle – Rod Clements
Drums, Percussion – Ray Laidlaw
Electric Guitar, Acoustic Guitar, Banjo, Mandolin, Vocals – Simon Cowe
Mandolin, Harmonica, Percussion, Vocals – Ray Jackson


Exact Audio Copy V1.1 from 23. June 2015

Отчёт EAC об извлечении, выполненном 24. июля 2017, 20:07

Lindisfarne / Back And Fourth

Дисковод: ASUS DRW-24B3ST Adapter: 0 ID: 0

Режим чтения : Достоверность
Использование точного потока : Да
Отключение кэша аудио : Да
Использование указателей C2 : Нет

Коррекция смещения при чтении : 6
Способность читать области Lead-in и Lead-out : Нет
Заполнение пропущенных сэмплов тишиной : Да
Удаление блоков с тишиной в начале и конце : Нет
При вычислениях CRC использовались нулевые сэмплы : Да
Интерфейс : Установленный внешний ASPI-интерфейс

Выходной формат : Пользовательский кодировщик
Выбранный битрейт : 1024 kBit/s
Качество : Высокий
Добавление ID3-тега : Нет
Утилита сжатия : C:\Program Files (x86)\Exact Audio Copy\Flac\flac.exe
Дополнительные параметры : -V -8 -T "Date=%year%" -T "Genre=%genre%" %source%


TOC извлечённого CD

Трек | Старт | Длительность | Начальный сектор | Конечный сектор
––––––––––––––––––––––––––––––––––-
1 | 0:00.00 | 2:23.35 | 0 | 10759
2 | 2:23.35 | 4:00.15 | 10760 | 28774
3 | 6:23.50 | 3:22.61 | 28775 | 43985
4 | 9:46.36 | 3:41.59 | 43986 | 60619
5 | 13:28.20 | 4:19.12 | 60620 | 80056
6 | 17:47.32 | 3:43.73 | 80057 | 96854
7 | 21:31.30 | 3:08.01 | 96855 | 110955
8 | 24:39.31 | 3:03.41 | 110956 | 124721
9 | 27:42.72 | 3:38.30 | 124722 | 141101
10 | 31:21.27 | 2:55.27 | 141102 | 154253
11 | 34:16.54 | 4:04.00 | 154254 | 172553
12 | 38:20.54 | 3:07.03 | 172554 | 186581
13 | 41:27.57 | 3:31.07 | 186582 | 202413


Характеристики диапазона извлечения и сообщения об ошибках

Выбранный диапазон

Имя файла E:\Torrents\Lindisfarne - 1978 - Back And Fourth\Lindisfarne - Back And Fourth.wav

Пиковый уровень 96.7 %
Скорость извлечения 7.8 X
Качество диапазона 99.9 %
CRC теста 3DC11A48
CRC копии 3DC11A48
Копирование… OK

Ошибок не произошло


AccurateRip: сводка

Трек 1 отсутствует в базе данных
Трек 2 отсутствует в базе данных
Трек 3 отсутствует в базе данных
Трек 4 отсутствует в базе данных
Трек 5 отсутствует в базе данных
Трек 6 отсутствует в базе данных
Трек 7 отсутствует в базе данных
Трек 8 отсутствует в базе данных
Трек 9 отсутствует в базе данных
Трек 10 отсутствует в базе данных
Трек 11 отсутствует в базе данных
Трек 12 отсутствует в базе данных
Трек 13 отсутствует в базе данных

Ни одного трека нет в базе AccurateRip

Конец отчёта

==== Контрольная сумма отчёта 76DB4DFCD482EC9B92FA908911D1D469DC9D4ECD7C7E61568FE3047F8C43249A ====

foobar2000 1.2.9 / Dynamic Range Meter 1.1.1
log date: 2017-07-25 08:14:17

––––––––––––––––––––––––––––––––––––––––
Analyzed: Lindisfarne / Back And Fourth
––––––––––––––––––––––––––––––––––––––––

DR Peak RMS Duration Track
––––––––––––––––––––––––––––––––––––––––
DR9 -0.30 dB -10.80 dB 2:23 01-Juke Box Gipsy
DR9 -0.30 dB -12.03 dB 4:00 02-Warm Feeling
DR10 -0.30 dB -12.48 dB 3:23 03-Woman
DR10 -0.30 dB -11.16 dB 3:42 04-Only Alone
DR9 -0.29 dB -11.15 dB 4:19 05-Run For Home
DR10 -0.30 dB -11.29 dB 3:44 06-King Cross Blues
DR11 -0.30 dB -12.52 dB 3:08 07-Get Wise
DR10 -0.30 dB -12.26 dB 3:04 08-You And Me
DR10 -0.30 dB -11.72 dB 3:38 09-Marshall Riley's Army
DR11 -2.88 dB -17.48 dB 2:55 10-Angels At Eleven
DR10 -0.29 dB -13.11 dB 4:04 11-Make Me Want To Stay
DR12 -0.80 dB -14.85 dB 3:07 12-Stick Together (Bonus)
DR9 -1.04 dB -11.96 dB 3:31 13-Brand New Day (Bonus)
––––––––––––––––––––––––––––––––––––––––

Number of tracks: 13
Official DR value: DR10

Samplerate: 44100 Hz
Channels: 2
Bits per sample: 16
Bitrate: 896 kbps
Codec: FLAC

[CUETools log; Date: 25.07.2017 8:10:23; Version: 2.1.4]
[CTDB TOCID: oKT4aiNL3azTqweFLg0WoC5tW9M-] disk not present in database.
[AccurateRip ID: 00159205-00d89223-b90a8a0d] disk not present in database.

Track Peak [ CRC32 ] [W/O NULL] [ LOG ]
– 96,7 [3DC11A48] [8E9ABF6E] CRC32
01 96,6 [E230F687] [516C5B7D]
02 96,6 [84DC9E3B] [0E9FD8A3]
03 96,6 [6E64F2D7] [7989700F]
04 96,6 [EB4C37BF] [75A5850F]
05 96,6 [34290FD3] [75416F98]
06 96,6 [A7F6895A] [AC2C0E35]
07 96,6 [67E93748] [FA337A64]
08 96,6 [7495451F] [DA3CDB82]
09 96,6 [18C1F1F1] [33496B13]
10 71,7 [29FD44F6] [858C0564]
11 96,7 [462EB6F3] [0561A224]
12 91,2 [014B9499] [B8A8243E]
13 88,7 [9241AB82] [9A3524F3]

Lindisfarne - Back And Fourth (1978) [Air Mail Archive AIRAC-1377, Japan]

All thanks go to Копысов

Lindisfarne in my Blog

Download Lindisfarne - Back And Fourth (1978)):