Subcategories

Lindsey Stirling - Warmer In The Winter (Japanese Edition) (2017)

Posted By: Pisulik
Lindsey Stirling - Warmer In The Winter (Japanese Edition) (2017)

Lindsey Stirling - Warmer In The Winter (Japanese Edition) (2017)
EAC Rip | FLAC (image) +cue, log, scans - 348 MB | 00:49:51
Classical Crossover, Pop, Xmas | Label: Concord Records / Universal Music

Warmer In The Winter, the first Holiday album from critically acclaimed electronic violinist Lindsey Stirling, will officially release October 20th on Lindseystomp Music / Concord Records. The album features renditions of Holiday favorites such as “Jingle Bell Rock”, “Silent Night”, “You’re a Mean One, Mr. Grinch”, and “Let It Snow”, as well as original numbers written by Lindsey Stirling. A slew of guest features by chart topping artists appear on the album including Sabrina Carpenter, Trombone Shorty and Alex Gaskarth of All Time Low.

TRACKLIST

01. Dance Of The Sugar Plum Fairy
02. You’re A Mean One, Mr. Grinch (feat. Sabrina Carpenter)
03. Christmas C'mon (feat. Becky G)
04. Carol Of The Bells
05. Angels We Have Heard on High
06. I Saw Three Ships
07. Let It Snow
08. Warmer In The Winter (feat. Trombone Shorty)
09. What Child Is This
10. All I Want for Christmas
11. Time To Fall In Love (feat. Alex Gaskarth)
12. Jingle Bell Rock
13. Silent Night
14. We Three Gentlemen (Japan Bonus Track)
15. O Come, Emmanuel (Japan Bonus Track)

Exact Audio Copy V1.1 from 23. June 2015

EAC extraction logfile from 16. November 2017, 23:21

Lindsey Stirling / Warmer In The Winter (UCCO-1194)

Used drive : TSSTcorpDVDWBD SH-B123L Adapter: 0 ID: 4

Read mode : Secure
Utilize accurate stream : Yes
Defeat audio cache : Yes
Make use of C2 pointers : No

Read offset correction : 6
Overread into Lead-In and Lead-Out : No
Fill up missing offset samples with silence : Yes
Delete leading and trailing silent blocks : No
Null samples used in CRC calculations : Yes
Used interface : Installed external ASPI interface

Used output format : User Defined Encoder
Selected bitrate : 768 kBit/s
Quality : High
Add ID3 tag : No
Command line compressor : C:\Program Files (x86)\Exact Audio Copy\FLAC\FLAC.EXE
Additional command line options : -6 -V -T "ARTIST=%artist%" -T "TITLE=%title%" -T "ALBUM=%albumtitle%" -T "DATE=%year%" -T "TRACKNUMBER=%tracknr%" -T "GENRE=%genre%" -T "COMMENT=%comment%" -T "BAND=%albuminterpret%" -T "ALBUMARTIST=%albuminterpret%" -T "COMPOSER=%composer%" %haslyrics%–tag-from-file=LYRICS="%lyricsfile%"%haslyrics% -T "DISCNUMBER=%cdnumber%" -T "TOTALDISCS=%totalcds%" -T "TOTALTRACKS=%numtracks%" %hascover%–picture="%coverfile%"%hascover% %source% -o %dest%


TOC of the extracted CD

Track | Start | Length | Start sector | End sector
––––––––––––––––––––––––––––-
1 | 0:00.00 | 2:39.74 | 0 | 11998
2 | 2:39.74 | 2:48.12 | 11999 | 24610
3 | 5:28.11 | 3:50.02 | 24611 | 41862
4 | 9:18.13 | 2:48.25 | 41863 | 54487
5 | 12:06.38 | 4:22.02 | 54488 | 74139
6 | 16:28.40 | 2:35.46 | 74140 | 85810
7 | 19:04.11 | 2:53.57 | 85811 | 98842
8 | 21:57.68 | 2:55.20 | 98843 | 111987
9 | 24:53.13 | 3:19.20 | 111988 | 126932
10 | 28:12.33 | 4:05.33 | 126933 | 145340
11 | 32:17.66 | 2:56.35 | 145341 | 158575
12 | 35:14.26 | 3:48.39 | 158576 | 175714
13 | 39:02.65 | 3:57.02 | 175715 | 193491
14 | 42:59.67 | 2:59.13 | 193492 | 206929
15 | 45:59.05 | 3:52.13 | 206930 | 224342


Range status and errors

Selected range

Filename E:\MUSIC\Lindsey Stirling - Warmer In The Winter (UCCO-1194).wav

Peak level 100.0 %
Extraction speed 3.3 X
Range quality 100.0 %
Test CRC D1764275
Copy CRC D1764275
Copy OK

No errors occurred


AccurateRip summary

Track 1 not present in database
Track 2 not present in database
Track 3 not present in database
Track 4 not present in database
Track 5 not present in database
Track 6 not present in database
Track 7 not present in database
Track 8 not present in database
Track 9 not present in database
Track 10 not present in database
Track 11 not present in database
Track 12 not present in database
Track 13 not present in database
Track 14 not present in database
Track 15 not present in database

None of the tracks are present in the AccurateRip database

End of status report

==== Log checksum D8876529A28980866068693CFB54A4D9C688FA9BFE3FA056965B971118303A61 ====


All thanks go to the original releaser