Subcategories

Lionel Hampton - You Better Know It !!! (1964) {2012, Japanese Reissue, 24-bit Remastered}

Posted By: popsakov
Lionel Hampton - You Better Know It !!! (1964) {2012, Japanese Reissue, 24-bit Remastered}

Lionel Hampton - You Better Know It !!! (1964) {2012, Japanese Reissue, 24-bit Remastered}
EAC Rip | FLAC (Img) + Cue + Log ~ 217 Mb | MP3 CBR320 ~ 108 Mb
Full Scans | 00:34:15 | RAR 5% Recovery
Jazz, Swing | Impulse! / Universal Classics & Jazz #UCCU-6236

Vibist Lionel Hampton's rhythmic abilities haven't been dulled by age, and he displayed his proficiency on this date, which includes the enjoyable bonus track "Moon Over My Annie." There was no wasted energy or unnecessary or exaggerated solos; just bluesy, assertive, muscular arrangements, accompaniment, and ensemble segments. Highlights included "Vibraphone Blues," "Trick or Treat" and "Swingle Jingle," in which Hampton shifted from vibes to piano.

~ Ron Wynn, All Music
Lionel Hampton - You Better Know It !!! (1964) {2012, Japanese Reissue, 24-bit Remastered}


***************

Lionel Hampton - You Better Know It !!! (1964) {2012, Japanese Reissue, 24-bit Remastered}

Lionel Hampton - You Better Know It !!! (1964) {2012, Japanese Reissue, 24-bit Remastered}

Track List:

01. Ring Dem Bells [03:30]
02. Vibraphone Blues [05:09]
03. Tempo's Birthday [03:59]
04. Sweethearts On Parade [03:13]
05. Pick A Rib [03:36]
06. Trick Or Treat [06:05]
07. Cute [03:06]
08. Swingle Jingle [02:56]
09. Taste Of Honey [02:45]

Personnel:
Lionel Hampton - vibes, piano, vocals
Clark Terry - trumpet
Ben Webster - tenor saxophone
Hank Jones - piano
Milt Hinton - bass
Osie Johnson - drums

Exact Audio Copy V1.0 beta 3 from 29. August 2011

EAC extraction logfile from 12. August 2016, 23:32

Lionel Hampton / You Better Know It !!! (UCCU-6236)

Used drive : MATSHITABD-CMB UJ242AS Adapter: 0 ID: 1

Read mode : Secure
Utilize accurate stream : Yes
Defeat audio cache : Yes
Make use of C2 pointers : No

Read offset correction : 103
Overread into Lead-In and Lead-Out : No
Fill up missing offset samples with silence : Yes
Delete leading and trailing silent blocks : No
Null samples used in CRC calculations : Yes
Used interface : Installed external ASPI interface

Used output format : User Defined Encoder
Selected bitrate : 1024 kBit/s
Quality : High
Add ID3 tag : Yes
Command line compressor : C:\Program Files (x86)\Exact Audio Copy\Flac\flac.exe
Additional command line options : -V -8 -T "Date=%year%" -T "Genre=%genre%" %source%


TOC of the extracted CD

Track | Start | Length | Start sector | End sector
––––––––––––––––––––––––––––-
1 | 0:00.00 | 3:29.10 | 0 | 15684
2 | 3:29.10 | 5:08.57 | 15685 | 38841
3 | 8:37.67 | 3:58.45 | 38842 | 56736
4 | 12:36.37 | 3:12.28 | 56737 | 71164
5 | 15:48.65 | 3:35.40 | 71165 | 87329
6 | 19:24.30 | 6:04.10 | 87330 | 114639
7 | 25:28.40 | 3:05.72 | 114640 | 128586
8 | 28:34.37 | 2:55.40 | 128587 | 141751
9 | 31:30.02 | 2:44.28 | 141752 | 154079


Range status and errors

Selected range

Filename C:\EACrip\Lionel Hampton - You Better Know It !!! (UCCU-6236).wav

Peak level 89.9 %
Extraction speed 3.5 X
Range quality 99.9 %
Test CRC 3F0E403A
Copy CRC 3F0E403A
Copy OK

No errors occurred


AccurateRip summary

Track 1 accurately ripped (confidence 5) [FF97C980] (AR v2)
Track 2 accurately ripped (confidence 5) [349F78E5] (AR v2)
Track 3 accurately ripped (confidence 5) [88744238] (AR v2)
Track 4 accurately ripped (confidence 5) [8E362E58] (AR v2)
Track 5 accurately ripped (confidence 5) [32033605] (AR v2)
Track 6 accurately ripped (confidence 5) [B8E5456B] (AR v2)
Track 7 accurately ripped (confidence 5) [E73CC243] (AR v2)
Track 8 accurately ripped (confidence 5) [6F385487] (AR v2)
Track 9 accurately ripped (confidence 5) [22D4F87A] (AR v2)

All tracks accurately ripped

End of status report

==== Log checksum F9D5F5D7A1D12734B13E17C8D2FBEF821119C828D811D7F68BBCEDA67144C428 ====

[CUETools log; Date: 16.08.2016 10:47:46; Version: 2.1.5]
[CTDB TOCID: 1G7DFS3RGRdYxm4il8ENPkfL6vg-] found.
Track | CTDB Status
1 | (6/6) Accurately ripped
2 | (6/6) Accurately ripped
3 | (6/6) Accurately ripped
4 | (6/6) Accurately ripped
5 | (6/6) Accurately ripped
6 | (6/6) Accurately ripped
7 | (6/6) Accurately ripped
8 | (6/6) Accurately ripped
9 | (6/6) Accurately ripped
[AccurateRip ID: 000c5772-005a103a-71080609] found.
Track [ CRC | V2 ] Status
01 [249ce2aa|ff97c980] (0+5/7) Accurately ripped
02 [1a06bd6b|349f78e5] (0+5/7) Accurately ripped
03 [6beb37cc|88744238] (0+5/7) Accurately ripped
04 [c22b547d|8e362e58] (0+5/7) Accurately ripped
05 [38fdf03e|32033605] (0+5/7) Accurately ripped
06 [c3263e3b|b8e5456b] (0+5/7) Accurately ripped
07 [69dd643e|e73cc243] (0+5/7) Accurately ripped
08 [fa66d712|6f385487] (0+5/7) Accurately ripped
09 [338d9962|22d4f87a] (0+5/7) Accurately ripped
Offsetted by 297:
01 [424bd02b] (0/7) No match (V2 was not tested)
02 [d457de8f] (0/7) No match (V2 was not tested)
03 [292d7280] (0/7) No match (V2 was not tested)
04 [808ef218] (0/7) No match (V2 was not tested)
05 [41de9f48] (0/7) No match (V2 was not tested)
06 [39cc1f73] (0/7) No match (V2 was not tested)
07 [8571a1c2] (0/7) No match (V2 was not tested)
08 [de9dc7c7] (0/7) No match (V2 was not tested)
09 [a9c07ff5] (0/7) No match (V2 was not tested)
Offsetted by 1356:
01 [af3130f0] (0/7) No match (V2 was not tested)
02 [2adb584f] (0/7) No match (V2 was not tested)
03 [0c5dbfb5] (0/7) No match (V2 was not tested)
04 [77adbd4a] (0/7) No match (V2 was not tested)
05 [ad00111a] (0/7) No match (V2 was not tested)
06 [c5d2eb84] (0/7) No match (V2 was not tested)
07 [260a4762] (0/7) No match (V2 was not tested)
08 [79c7fd92] (0/7) No match (V2 was not tested)
09 [68244295] (0/7) No match (V2 was not tested)

Track Peak [ CRC32 ] [W/O NULL] [ LOG ]
– 89,9 [3F0E403A] [C8D826BD] CRC32
01 72,4 [436F4D62] [20055594]
02 85,8 [C4D7FD92] [B18B2277]
03 76,5 [225FA47D] [39354A47]
04 89,9 [38DF0BC7] [D391FE9D]
05 68,9 [E2B47E8E] [1F38D603]
06 83,5 [72AC458C] [022B0A48]
07 77,4 [6DEE03AF] [F8B85081]
08 70,1 [89696D40] [C4F59943]
09 56,1 [BB9EAF46] [BCE457D7]

Lionel Hampton - You Better Know It !!! (1964) {2012, Japanese Reissue, 24-bit Remastered}


All thanks go to RD

>>> My Blog <<<

DOWNLOAD: