Subcategories

Lisa Loeb - Lullaby Girl (2017)

Posted By: SERTiL
Lisa Loeb - Lullaby Girl (2017)

Lisa Loeb - Lullaby Girl (2017)
EAC Rip | FLAC (tracks)+cue, log, m3u, front cover | 219 MB
Label: Furious Rose Productions | Tracks: 13 | Time: 41:42 min
Pop

Pull up the covers and relax with Lisa Loeb and a world-class quartet led by keyboardist Larry Goldings. An Amazon Originals release, Lullaby Girl offers fresh and dreamy arrangements of classic songs from a variety of genres. Lisa’s distinctive voice adds intimacy and expression to these familiar melodies. Hushed and meditative, the recording was co-produced with Lisa's longtime collaborator Rich Jacques and Goldings, who is known for his work with James Taylor, John Mayer, as well as many top jazz artists. World-renowned songwriter and guitarist Adam Levy (who tours and records with Norah Jones and Tracy Chapman) also performs. The album was originally planned as a traditional lullaby record for children. As they began the recording process, Lisa, Larry and Rich found a uniquely different path, and it became clear that this would be a record for everyone. “I’m so excited for everyone to hear this collection of classics recorded with an amazing group of musicians. I feel like we’ve come up with a new take on classics that people will really enjoy. We live in a time where everything happens so quickly, but with this album, you’ll be able to slow it all down and relax!" shares Lisa.

Indeed, Lullaby Girl is an album for insomniacs. Lisa's performance reminds us of why songs like “Be My Baby,” “All the Pretty Little Horses,” “Dream a Little Dream,” "What the World Needs Now Is Love" and “Oooh Child” remain classics. Lisa’s original songs “Close Your Eyes” and "Lullaby Girl" flows right in with the pristine arrangements of tunes like Brian Wilson’s “In My Room” and Annie's“Tomorrow.”
Lullaby Girl is the perfect companion to Lisa's other award-winning family music releases Nursery Rhyme Parade! and Feel What U Feel.

When sold by Amazon.com, this product is manufactured on demand using CD-R recordable media. Amazon.com's standard return policy will apply.

Tracklist:
1. Be My Baby
2. Don't Stop
3. Close Your Eyes
4. Dream a Little Dream
5. In My Room
6. O-O-H Child
7. Rainbow Connection
8. All The Pretty Little Horses
9. Lullaby Girl
10. Inch Worm
11. What The World Needs Now Is Love
12. A Dream Is A Wish Your Heart Makes
13. Tomorrow

Exact Audio Copy V1.3 from 2. September 2016

EAC extraction logfile from 3. December 2017, 20:36

Lisa Loeb / Lullaby Girl

Used drive : HL-DT-STDVDRAM GP65NB60 Adapter: 1 ID: 0

Read mode : Secure
Utilize accurate stream : Yes
Defeat audio cache : Yes
Make use of C2 pointers : No

Read offset correction : 6
Overread into Lead-In and Lead-Out : No
Fill up missing offset samples with silence : Yes
Delete leading and trailing silent blocks : No
Null samples used in CRC calculations : Yes
Used interface : Native Win32 interface for Win NT & 2000
Gap handling : Appended to previous track

Used output format : User Defined Encoder
Selected bitrate : 128 kBit/s
Quality : High
Add ID3 tag : No
Command line compressor : C:\Program Files (x86)\Exact Audio Copy\Flac\flac.exe
Additional command line options : -8 -e -p -V -T "ARTIST=%artist%" -T "TITLE=%title%" -T "ALBUM=%albumtitle%" -T "DATE=%year%" -T "TRACKNUMBER=%tracknr%" -T "GENRE=%genre%" -T "PERFORMER=%albuminterpret%" -T "COMPOSER=%composer%" %haslyrics%–tag-from-file=LYRICS="%lyricsfile%"%haslyrics% -T "ALBUMARTIST=%albumartist%" -T "DISCNUMBER=%cdnumber%" -T "TOTALDISCS=%totalcds%" -T "TOTALTRACKS=%numtracks%" -T "COMMENT=%comment%" %source% -o %dest%


TOC of the extracted CD

Track | Start | Length | Start sector | End sector
––––––––––––––––––––––––––––-
1 | 0:00.00 | 3:13.36 | 0 | 14510
2 | 3:13.36 | 3:23.07 | 14511 | 29742
3 | 6:36.43 | 2:56.69 | 29743 | 43011
4 | 9:33.37 | 3:15.05 | 43012 | 57641
5 | 12:48.42 | 4:15.71 | 57642 | 76837
6 | 17:04.38 | 3:36.27 | 76838 | 93064
7 | 20:40.65 | 3:57.63 | 93065 | 110902
8 | 24:38.53 | 2:40.61 | 110903 | 122963
9 | 27:19.39 | 2:10.05 | 122964 | 132718
10 | 29:29.44 | 4:05.62 | 132719 | 151155
11 | 33:35.31 | 2:58.48 | 151156 | 164553
12 | 36:34.04 | 2:27.57 | 164554 | 175635
13 | 39:01.61 | 2:47.48 | 175636 | 188208


Track 1

Filename D:\Lisa Loeb - Lullaby Girl (2017) {FLAC}\01 - Be My Baby.wav

Pre-gap length 0:00:02.00

Peak level 97.7 %
Extraction speed 1.1 X
Track quality 100.0 %
Test CRC CA9E7612
Copy CRC CA9E7612
Track not present in AccurateRip database
Copy OK

Track 2

Filename D:\Lisa Loeb - Lullaby Girl (2017) {FLAC}\02 - Don't Stop.wav

Pre-gap length 0:00:02.00

Peak level 97.7 %
Extraction speed 1.3 X
Track quality 100.0 %
Test CRC 38890167
Copy CRC 38890167
Track not present in AccurateRip database
Copy OK

Track 3

Filename D:\Lisa Loeb - Lullaby Girl (2017) {FLAC}\03 - Close Your Eyes.wav

Pre-gap length 0:00:02.00

Peak level 98.5 %
Extraction speed 1.1 X
Track quality 99.9 %
Test CRC 82B33366
Copy CRC 82B33366
Track not present in AccurateRip database
Copy OK

Track 4

Filename D:\Lisa Loeb - Lullaby Girl (2017) {FLAC}\04 - Dream a Little Dream.wav

Pre-gap length 0:00:02.00

Peak level 98.5 %
Extraction speed 1.4 X
Track quality 100.0 %
Test CRC 7D0E3E0C
Copy CRC 7D0E3E0C
Track not present in AccurateRip database
Copy OK

Track 5

Filename D:\Lisa Loeb - Lullaby Girl (2017) {FLAC}\05 - In My Room.wav

Pre-gap length 0:00:02.00

Peak level 98.2 %
Extraction speed 1.4 X
Track quality 99.9 %
Test CRC DAF9E851
Copy CRC DAF9E851
Track not present in AccurateRip database
Copy OK

Track 6

Filename D:\Lisa Loeb - Lullaby Girl (2017) {FLAC}\06 - O-O-H Child.wav

Pre-gap length 0:00:02.00

Peak level 98.1 %
Extraction speed 1.6 X
Track quality 100.0 %
Test CRC BE31A597
Copy CRC BE31A597
Track not present in AccurateRip database
Copy OK

Track 7

Filename D:\Lisa Loeb - Lullaby Girl (2017) {FLAC}\07 - Rainbow Connection.wav

Pre-gap length 0:00:02.00

Peak level 98.6 %
Extraction speed 1.8 X
Track quality 100.0 %
Test CRC 2056FC34
Copy CRC 2056FC34
Track not present in AccurateRip database
Copy OK

Track 8

Filename D:\Lisa Loeb - Lullaby Girl (2017) {FLAC}\08 - All the Pretty Little Horses.wav

Pre-gap length 0:00:02.00

Peak level 98.0 %
Extraction speed 1.7 X
Track quality 100.0 %
Test CRC 35F15021
Copy CRC 35F15021
Track not present in AccurateRip database
Copy OK

Track 9

Filename D:\Lisa Loeb - Lullaby Girl (2017) {FLAC}\09 - Lullaby Girl.wav

Pre-gap length 0:00:02.00

Peak level 98.7 %
Extraction speed 1.7 X
Track quality 100.0 %
Test CRC D62A2F13
Copy CRC D62A2F13
Track not present in AccurateRip database
Copy OK

Track 10

Filename D:\Lisa Loeb - Lullaby Girl (2017) {FLAC}\10 - Inch Worm.wav

Pre-gap length 0:00:02.00

Peak level 98.5 %
Extraction speed 2.0 X
Track quality 100.0 %
Test CRC 913E5B97
Copy CRC 913E5B97
Track not present in AccurateRip database
Copy OK

Track 11

Filename D:\Lisa Loeb - Lullaby Girl (2017) {FLAC}\11 - What the Wold Needs Now Is Love.wav

Pre-gap length 0:00:02.00

Peak level 99.0 %
Extraction speed 1.7 X
Track quality 99.9 %
Test CRC 69C421B8
Copy CRC 69C421B8
Track not present in AccurateRip database
Copy OK

Track 12

Filename D:\Lisa Loeb - Lullaby Girl (2017) {FLAC}\12 - A Dream is a Wish Your Heart Makes.wav

Pre-gap length 0:00:02.00

Peak level 97.9 %
Extraction speed 1.9 X
Track quality 100.0 %
Test CRC 4490581C
Copy CRC 4490581C
Track not present in AccurateRip database
Copy OK

Track 13

Filename D:\Lisa Loeb - Lullaby Girl (2017) {FLAC}\13 - Tomorrow.wav

Pre-gap length 0:00:02.00

Peak level 98.0 %
Extraction speed 1.7 X
Track quality 99.9 %
Test CRC 7D9B40D4
Copy CRC 7D9B40D4
Track not present in AccurateRip database
Copy OK


None of the tracks are present in the AccurateRip database

No errors occurred

End of status report

–– CUETools DB Plugin V2.1.6

[CTDB TOCID: Y1u95bixu4reNDzH9MxqJRNQ0vE-] found
Submit result: already submitted
Track | CTDB Status
1 | (1/1) Accurately ripped
2 | (1/1) Accurately ripped
3 | (1/1) Accurately ripped
4 | (1/1) Accurately ripped
5 | (1/1) Accurately ripped
6 | (1/1) Accurately ripped
7 | (1/1) Accurately ripped
8 | (1/1) Accurately ripped
9 | (1/1) Accurately ripped
10 | (1/1) Accurately ripped
11 | (1/1) Accurately ripped
12 | (1/1) Accurately ripped
13 | (1/1) Accurately ripped


==== Log checksum 0431B6C54EE4C3E1BE06A7EFFA74EB1D7A257BEF3ADD0906607BEDE46EB3E0CD ====


Thanks to the Original customer.