Subcategories

Lisa Franco - My Way (1993)

Posted By: gribovar
Lisa Franco - My Way (1993)

Lisa Franco - My Way (1993)
EAC Rip | APE (image+.cue+log) - 275 MB | MP3 CBR 320 kbps (LAME 3.93) - 126 MB | Covers - 36 MB
Genre: New Age | RAR 3% Rec. | Label: Innovative Communication (IC 2198-2)

Celtic harpist Lisa Lynne Franco began studying music as a child; initially attracted to folk sounds, she took up the guitar and mandolin, later playing bass in a local rock band. While enrolled at Hollywood's Musician's Institute of Technology, she concurrently enjoyed a thriving career as a session player; upon discovering the harp in 1985, Franco also formed a progressive rock outfit dubbed Bigger Than Blue. After landing a deal with the German label Innovative Communication, however, student visa problems forced the band to dissolve, so Franco instead played all the instruments on 1991's debut LP Bigger Than Blue. Three more efforts for the label - Romantic Dreams, My Way, and Silken Wings - followed while she formed a new group, Celestial Winds, which earned a significant following playing the boardwalk along Venice Beach.
Tracklist:
01. Acapulco Express
02. My Way
03. Borderline
04. Eastern Sky
05. On Eagle's Wings
06. Soul Fire
07. Mexican Moon
08. Cruise Control
09. Harp Dreams
10. Cathedral Serenade
11. Quiet Heart
12. Raphael's Vision

Total time: 53:47

Exact Audio Copy V0.99 prebeta 4 from 23. January 2008

Отчёт EAC об извлечении, выполненном 13. сентября 2010, 20:52

Lisa Franco / "My WaY"

Дисковод: PLEXTOR CD-R PX-W5224A Adapter: 1 ID: 1

Режим чтения : Достоверность
Использование точного потока : Да
Отключение кэша аудио : Да
Использование указателей C2 : Нет

Коррекция смещения при чтении : 30
Способность читать области Lead-in и Lead-out : Нет
Заполнение пропущенных сэмплов тишиной : Да
Удаление блоков с тишиной в начале и конце : Нет
При вычислениях CRC использовались нулевые сэмплы : Да
Интерфейс : Установленный внешний ASPI-интерфейс

Выходной формат : Monkey's Audio Lossless Encoder v3.99 DLL
Формат сэмплов : High Lossless Compression


TOC извлечённого CD

Трек | Старт | Длительность | Начальный сектор | Конечный сектор
––––––––––––––––––––––––––––––––––-
1 | 0:00.00 | 3:41.00 | 0 | 16574
2 | 3:41.00 | 2:52.00 | 16575 | 29474
3 | 6:33.00 | 5:02.00 | 29475 | 52124
4 | 11:35.00 | 4:29.00 | 52125 | 72299
5 | 16:04.00 | 6:15.00 | 72300 | 100424
6 | 22:19.00 | 4:34.00 | 100425 | 120974
7 | 26:53.00 | 5:40.00 | 120975 | 146474
8 | 32:33.00 | 3:42.00 | 146475 | 163124
9 | 36:15.00 | 4:48.00 | 163125 | 184724
10 | 41:03.00 | 4:12.00 | 184725 | 203624
11 | 45:15.00 | 3:02.00 | 203625 | 217274
12 | 48:17.00 | 5:30.00 | 217275 | 242024


Характеристики диапазона извлечения и сообщения об ошибках

Выбранный диапазон

Имя файла D:\Releases\LisaFranco_1993_MyWaY\LisaFranco_1993_MyWaY.ape

Пиковый уровень 100.0 %
Качество диапазона 99.9 %
CRC теста B1CD54BA
CRC копии B1CD54BA
Копирование… OK

Ошибок не произошло


AccurateRip: сводка

Трек 1 точное извлечение (доверие 1) [C6B3E386]
Трек 2 точное извлечение (доверие 1) [8AD07F22]
Трек 3 точное извлечение (доверие 1) [079A992A]
Трек 4 точное извлечение (доверие 1) [D12032DE]
Трек 5 точное извлечение (доверие 1) [0DFD5FDB]
Трек 6 точное извлечение (доверие 1) [7431AA63]
Трек 7 точное извлечение (доверие 1) [62F94725]
Трек 8 точное извлечение (доверие 1) [22B4DD77]
Трек 9 точное извлечение (доверие 1) [4B521DBF]
Трек 10 точное извлечение (доверие 1) [ADEBB6BF]
Трек 11 точное извлечение (доверие 1) [53889D85]
Трек 12 точное извлечение (доверие 1) [603D0F91]

Все треки извлечены точно

Конец отчёта

[CUETools log; Date: 08.11.2019 3:32:52; Version: 2.1.4]
[CTDB TOCID: OoDF5VVvmd5KbNPUzBn1bWawrdY-] found.
Track | CTDB Status
1 | (7/7) Accurately ripped
2 | (7/7) Accurately ripped
3 | (7/7) Accurately ripped
4 | (7/7) Accurately ripped
5 | (7/7) Accurately ripped
6 | (7/7) Accurately ripped
7 | (7/7) Accurately ripped
8 | (7/7) Accurately ripped
9 | (7/7) Accurately ripped
10 | (7/7) Accurately ripped
11 | (7/7) Accurately ripped
12 | (7/7) Accurately ripped
[AccurateRip ID: 0017a345-00df1bba-be0c9b0c] found.
Track [ CRC | V2 ] Status
01 [c6b3e386|cdd7e9ce] (1+1/2) Accurately ripped
02 [8ad07f22|99df8503] (1+1/2) Accurately ripped
03 [079a992a|ac7b19d1] (1+1/2) Accurately ripped
04 [d12032de|d94fba70] (1+1/2) Accurately ripped
05 [0dfd5fdb|bb0a798e] (1+1/2) Accurately ripped
06 [7431aa63|4babd1ff] (1+1/2) Accurately ripped
07 [62f94725|356feec7] (1+1/2) Accurately ripped
08 [22b4dd77|0b9d3c7a] (1+1/2) Accurately ripped
09 [4b521dbf|07ace5e3] (1+1/2) Accurately ripped
10 [adebb6bf|a182d836] (1+1/2) Accurately ripped
11 [53889d85|858458e3] (1+1/2) Accurately ripped
12 [603d0f91|878507db] (1+1/2) Accurately ripped

Track Peak [ CRC32 ] [W/O NULL] [ LOG ]
– 100,0 [B1CD54BA] [A476E723] CRC32
01 100,0 [D63D1CE0] [6000CC43]
02 96,0 [BD07FDC8] [5BA379AA]
03 82,8 [AB38B338] [0ECC7062]
04 92,1 [B50EDCD6] [B5A19797]
05 97,7 [494CCDE9] [285C7058]
06 98,6 [4EA630D3] [959DF0A7]
07 97,9 [C934F9F9] [01EF29F4]
08 60,1 [C606F71B] [96F610BB]
09 51,5 [DD32EB98] [9161179D]
10 51,3 [8AE46EC4] [C26F6468]
11 95,1 [B3F7EA7C] [EBB69992]
12 89,9 [198E12B1] [F730C4AC]

Thanks to BelOleg