Tags
Language
Tags

Little Axe - Bought For A Dollar / Sold For A Dime (2010)

Posted By: popsakov
Little Axe - Bought For A Dollar / Sold For A Dime (2010)

Little Axe - Bought For A Dollar / Sold For A Dime (2010)
EAC Rip | FLAC (Img) + Cue + Log ~ 397 Mb | MP3 CBR320 ~ 150 Mb
Scans Included | 00:59:02 | RAR 5% Recovery
Blues Rock / Reggae Gospel / Dub / Modern Electric Blues / Harmonica Blues
Real World Records #CDRW178 / 180030000499

Everyone gets the blues, says Skip McDonald, who should know. The legendary guitarist gets them - like, really gets them - more than most. The blues are a fact of life, he adds in a Dayton, Ohio twang undiminished by two decades of UK living. It doesn't matter where you are. The blues have no boundaries. An old school bluesman in the tradition of everyone from Howling Wolf and Leadbelly to Blind Willie Johnson, McDonald channels the past into the future through his internationally regarded project, Little Axe. A project that is more than just a band: it's a collective of different people who, at certain periods, come together to create great work.

Founded in the early 1990s, with five acclaimed albums to their credit, Little Axe are redefining the blues for the current generation. The making of the new Little Axe album Bought for a Dollar, Sold for a Dime, launched May 21st in London with a live mix by On-U Sound label founder and Little Axe producer, Adrian Sherwood and released June 7th. 'Bought For A Dollar, Sold For A Dime… Addictive rhythms. Soulful vocals. Pinches of dub and funk, reggae and gospel. Oh-so-subtle samples and innovative electronics. And underpinning it all, Skip McDonald's shimmering blues guitar licks, conjuring a space where the dirt roads of the Deep South meet the shiny lanes of the Information Superhighway.

A host of musical heavyweights assembled in the Big Room at Real World for this rare and privileged session, with all but the London-based McDonald and his co-producer, British dub maestro Adrian Sherwood, flying in from across the USA. Titans such as soul singer Bernard Fowler, whose voice has graced sets from The Rolling Stones, Sly and Robbie to Ryuichi Sakamoto. McDonald says, Bernard's voice has got everything. It's emotional, changeable and incredibly powerful. We call blues singers like him 'elephants', cause they sure know how to trumpet.
Little Axe - Bought For A Dollar / Sold For A Dime (2010)


***************

Little Axe - Bought For A Dollar / Sold For A Dime (2010)

Track List:

01. Guide My Feet [0:56]
02. Soul Of A Man [4:14]
03. Grinning [3:28]
04. Take A Stroll [4:00]
05. Hands Off [0:51]
06. Can't Sleep [5:19]
07. Hammerhead [5:22]
08. Can't Stop Walking Yet [5:55]
09. Hear Me Cry [5:38]
10. Too Late [5:30]
11. Another Friend Gone [5:56]
12. Tell Me Why [6:19]
13. Return [4:42]
14. When The Sun Goes Down [0:51]

Exact Audio Copy V1.0 beta 1 from 15. November 2010

EAC extraction logfile from 9. December 2010, 23:46

Little Axe / Bought For A Dollar. Sold For A Dime

Used drive : ASUS DRW-24B1ST Adapter: 2 ID: 1

Read mode : Secure
Utilize accurate stream : Yes
Defeat audio cache : Yes
Make use of C2 pointers : No

Read offset correction : 6
Overread into Lead-In and Lead-Out : No
Fill up missing offset samples with silence : Yes
Delete leading and trailing silent blocks : No
Null samples used in CRC calculations : Yes
Used interface : Native Win32 interface for Win NT & 2000

Used output format : Internal WAV Routines
Sample format : 44.100 Hz; 16 Bit; Stereo


TOC of the extracted CD

Track | Start | Length | Start sector | End sector
––––––––––––––––––––––––––––-
1 | 0:00.00 | 0:56.11 | 0 | 4210
2 | 0:56.11 | 4:14.25 | 4211 | 23285
3 | 5:10.36 | 3:27.62 | 23286 | 38872
4 | 8:38.23 | 3:59.72 | 38873 | 56869
5 | 12:38.20 | 0:51.10 | 56870 | 60704
6 | 13:29.30 | 5:19.37 | 60705 | 84666
7 | 18:48.67 | 5:22.07 | 84667 | 108823
8 | 24:10.74 | 5:55.32 | 108824 | 135480
9 | 30:06.31 | 5:37.49 | 135481 | 160804
10 | 35:44.05 | 5:30.09 | 160805 | 185563
11 | 41:14.14 | 5:55.66 | 185564 | 212254
12 | 47:10.05 | 6:18.66 | 212255 | 240670
13 | 53:28.71 | 4:42.21 | 240671 | 261841
14 | 58:11.17 | 0:50.65 | 261842 | 265656


Range status and errors

Selected range

Filename D:\Моя музыка\_Записи_\Little Axe - Bought For A Dollar. Sold For A Dime.wav

Peak level 98.8 %
Extraction speed 0.1 X
Range quality 100.0 %
Copy CRC 16697F13
Copy OK

No errors occurred


AccurateRip summary

Track 1 accurately ripped (confidence 7) [4EFE9D81]
Track 2 accurately ripped (confidence 7) [C6CE76E7]
Track 3 accurately ripped (confidence 7) [619237B5]
Track 4 accurately ripped (confidence 7) [DFBB286D]
Track 5 accurately ripped (confidence 7) [3C089434]
Track 6 accurately ripped (confidence 7) [635737AC]
Track 7 accurately ripped (confidence 7) [9C17F0DA]
Track 8 accurately ripped (confidence 7) [6BE27859]
Track 9 accurately ripped (confidence 7) [8332DD8E]
Track 10 accurately ripped (confidence 7) [D9FBB5DE]
Track 11 accurately ripped (confidence 7) [991EA3B0]
Track 12 accurately ripped (confidence 7) [7975FEF2]
Track 13 accurately ripped (confidence 7) [8FC64F27]
Track 14 accurately ripped (confidence 7) [DA3BFEDE]

All tracks accurately ripped

End of status report

[CUETools log; Date: 20.04.2020 15:57:08; Version: 2.1.6]
[CTDB TOCID: pH5DpxAq2mDgW58N_V3KjzhI4wE-] found.
Track | CTDB Status
1 | (18/18) Accurately ripped
2 | (18/18) Accurately ripped
3 | (18/18) Accurately ripped
4 | (18/18) Accurately ripped
5 | (18/18) Accurately ripped
6 | (18/18) Accurately ripped
7 | (18/18) Accurately ripped
8 | (18/18) Accurately ripped
9 | (18/18) Accurately ripped
10 | (18/18) Accurately ripped
11 | (18/18) Accurately ripped
12 | (17/18) Accurately ripped
13 | (18/18) Accurately ripped
14 | (18/18) Accurately ripped
[AccurateRip ID: 001c125f-01396ccf-9d0dd60e] found.
Track [ CRC | V2 ] Status
01 [4efe9d81|a73d2f8e] (10+19/29) Accurately ripped
02 [c6ce76e7|2b734329] (10+19/29) Accurately ripped
03 [619237b5|68317300] (10+19/29) Accurately ripped
04 [dfbb286d|3112e9d6] (10+19/29) Accurately ripped
05 [3c089434|ed8be646] (10+19/29) Accurately ripped
06 [635737ac|dc501c96] (10+19/29) Accurately ripped
07 [9c17f0da|34d88ee3] (10+19/29) Accurately ripped
08 [6be27859|8bbd781f] (10+19/29) Accurately ripped
09 [8332dd8e|955832f6] (10+19/29) Accurately ripped
10 [d9fbb5de|53860b7a] (10+19/29) Accurately ripped
11 [991ea3b0|0743a1e7] (10+19/29) Accurately ripped
12 [7975fef2|e01213af] (10+19/29) Accurately ripped
13 [8fc64f27|4edfd948] (10+19/29) Accurately ripped
14 [da3bfede|5d1f8d89] (10+19/29) Accurately ripped

Track Peak [ CRC32 ] [W/O NULL] [ LOG ]
– 98,8 [16697F13] [E3900591] CRC32
01 49,3 [74AB46CB] [1E078CB4]
02 98,4 [D5437408] [970EA374]
03 98,7 [60605577] [C1C650E4]
04 98,8 [820EB4C4] [03F27404]
05 44,4 [58E6FB87] [E27279F7]
06 89,0 [13C55887] [02DBDE1E]
07 98,8 [4CC6F3CB] [05C58AAD]
08 98,7 [37AB4E3D] [6DC58471]
09 91,1 [DA99790D] [84B5ACE8]
10 98,8 [E0F40E43] [C88C4579]
11 84,9 [0583B5CA] [C3F4850D]
12 98,2 [743D55BA] [000DB85C]
13 98,8 [6A2D436C] [4DE9D6F2]
14 43,4 [0A5D94DA] [8CD11A79]

Little Axe - Bought For A Dollar / Sold For A Dime (2010)


All thanks go to yupi_66

>>> My Blog <<<

DOWNLOAD: