Tags
Language
Tags

VA - Little Miss Sunshine (Original Motion Picture Soundtrack) (2006)

Posted By: Rtax
VA - Little Miss Sunshine (Original Motion Picture Soundtrack) (2006)

VA - Little Miss Sunshine (Original Motion Picture Soundtrack) (2006)
EAC Rip | FLAC (tracks, cue, log, scans) - 270 MB
46:25 | Soundtrack, Stage & Screen | Label: Lakeshore Records

Little Miss Sunshine [Original Motion Picture Soundtrack] Review by Marisa Brown [-]
The quirky Hoover family's travels from New Mexico to California in order to support 7-year-old Olive's dream of being in a beauty pageant and the events that occur during the trip provide the back line to the soundtrack to the film Little Miss Sunshine. With the exceptions of the pop-dance "Catwalkin'" and the remix of "Superfreak," which presumably are played during the actual competition, the music that accompanies the film is pretty, introspective, and vaguely sad – the perfect choice for a 2006 Sundance-celebrated film (it was the reception it received at that festival that prompted Fox Searchlight to buy the distribution rights to it). Indie rock à la Sufjan Stevens (who, in fact, contributes two songs, "Chicago" from Illinois and "No Man's Land" from its outtakes album), courtesy of composer Mychael Danna and Colorado band DeVotchKa, rolls and sweeps across the Southwestern landscape with strings and horns and melancholic chords as family drama plays out, both the film and the soundtrack resolving in the final notes of the album. But that song, "How It Ends," which returns to a theme found in the opener "The Winner Is," with arpeggios and eighth-notes that move sadly along as violins fade out and end, leaves questions unanswered. Because Little Miss Sunshine isn't trying to give definite reasons for anything, instead it's exploring relationships and life, and so as the songs go from Rufus Wainwright-esque ballads to spaghetti western-inspired instrumentals, these same feelings of searching and discovery come through in the notes. Everything has that kind of sad and funny and yet achingly beautiful feel that you get when tragedy or hardship strikes in an absurd manner, and you're not sure whether to laugh or cry. It's a touching album for a touching movie, good enough to be enjoyed on its own but better still as a reminder of the film.

Tracklist
01. Mychael Danna - The Winner Is (03:05)
02. Devotchka - Til The End of Time (03:57)
03. Devotchka - You Love Me (04:02)
04. Mychael Danna - First Push (01:05 )
05. Sufjan Stevens - No Man's Land (04:47)
06. Mychael Danna - Let's Go (03:21)
07. Mychael Danna - No One Gets Left Behind (01:15)
08. Sufjan Stevens - Sufjan Stevens - Chicago (06:08)
09. Mychael Danna - We're Gonna Make It (02:33)
10. Mychael Danna - Do You Think There's A Heaven (01:23)
11. Tony Tisdale - Catwalkin '(01:39)
12 Rick James - Superfreak (Rocasound Revamp) (04:13)
13. Devotchka - La Llorona (03:25)
14. Devotchka - How It Ends (05:39)
Exact Audio Copy V0.99 prebeta 4 from 23. January 2008

EAC extraction logfile from 21. March 2008, 15:36

Various Artists / Little Miss Sunshine

Used drive : HP DVD Writer 300n Adapter: 1 ID: 0

Read mode : Secure
Utilize accurate stream : Yes
Defeat audio cache : Yes
Make use of C2 pointers : No

Read offset correction : 48
Overread into Lead-In and Lead-Out : No
Fill up missing offset samples with silence : Yes
Delete leading and trailing silent blocks : No
Null samples used in CRC calculations : Yes
Used interface : Installed external ASPI interface
Gap handling : Appended to previous track

Used output format : User Defined Encoder
Selected bitrate : 320 kBit/s
Quality : High
Add ID3 tag : No
Command line compressor : C:\Program Files\Exact Audio Copy\Flac\flac.exe
Additional command line options : -8 -A tukey(0.25) -A gauss(0.1875) -b 4096 -V -T "artist=%a" -T "title=%t" -T "album=%g" -T "date=%y" -T "tracknumber=%n" -T "genre=%m" %s –sector-align


TOC of the extracted CD

Track | Start | Length | Start sector | End sector
––––––––––––––––––––––––––––-
1 | 0:00.00 | 3:04.61 | 0 | 13860
2 | 3:04.61 | 3:56.64 | 13861 | 31624
3 | 7:01.50 | 4:02.00 | 31625 | 49774
4 | 11:03.50 | 1:05.06 | 49775 | 54655
5 | 12:08.56 | 4:47.13 | 54656 | 76193
6 | 16:55.69 | 3:21.17 | 76194 | 91285
7 | 20:17.11 | 1:14.61 | 91286 | 96896
8 | 21:31.72 | 6:07.58 | 96897 | 124479
9 | 27:39.55 | 2:32.52 | 124480 | 135931
10 | 30:12.32 | 1:23.09 | 135932 | 142165
11 | 31:35.41 | 1:38.65 | 142166 | 149580
12 | 33:14.31 | 4:13.13 | 149581 | 168568
13 | 37:27.44 | 3:24.63 | 168569 | 183931
14 | 40:52.32 | 5:39.00 | 183932 | 209356


Track 1

Filename C:\Documents and Settings\Eric\My Documents\My Music\FLAC Archive\OST\Little Miss Sunshine\(01) The Winner Is - Mychael Danna.wav

Pre-gap length 0:00:02.00

Peak level 96.8 %
Track quality 100.0 %
Test CRC 1FF1EF6C
Copy CRC 1FF1EF6C
Accurately ripped (confidence 6) [DDECD90F]
Copy OK

Track 2

Filename C:\Documents and Settings\Eric\My Documents\My Music\FLAC Archive\OST\Little Miss Sunshine\(02) Til The End of Time - Devotchka.wav

Pre-gap length 0:00:02.00

Peak level 98.6 %
Track quality 100.0 %
Test CRC 8D547E20
Copy CRC 8D547E20
Accurately ripped (confidence 6) [18E360AE]
Copy OK

Track 3

Filename C:\Documents and Settings\Eric\My Documents\My Music\FLAC Archive\OST\Little Miss Sunshine\(03) You Love Me - Devotchka.wav

Pre-gap length 0:00:02.00

Peak level 93.7 %
Track quality 100.0 %
Test CRC 0759D242
Copy CRC 0759D242
Accurately ripped (confidence 6) [50E8B5EF]
Copy OK

Track 4

Filename C:\Documents and Settings\Eric\My Documents\My Music\FLAC Archive\OST\Little Miss Sunshine\(04) First Push - Mychael Danna.wav

Pre-gap length 0:00:02.00

Peak level 98.2 %
Track quality 99.8 %
Test CRC 03EA59D3
Copy CRC 03EA59D3
Accurately ripped (confidence 6) [6BE4B0BC]
Copy OK

Track 5

Filename C:\Documents and Settings\Eric\My Documents\My Music\FLAC Archive\OST\Little Miss Sunshine\(05) No Man's Land - Sufjan Stevens.wav

Pre-gap length 0:00:02.00

Peak level 78.4 %
Track quality 100.0 %
Test CRC 86611BA2
Copy CRC 86611BA2
Accurately ripped (confidence 6) [9D08D92D]
Copy OK

Track 6

Filename C:\Documents and Settings\Eric\My Documents\My Music\FLAC Archive\OST\Little Miss Sunshine\(06) Let's Go - Mychael Danna.wav

Pre-gap length 0:00:02.00

Peak level 100.0 %
Track quality 99.9 %
Test CRC 7A4277BB
Copy CRC 7A4277BB
Accurately ripped (confidence 6) [6E6D9EDE]
Copy OK

Track 7

Filename C:\Documents and Settings\Eric\My Documents\My Music\FLAC Archive\OST\Little Miss Sunshine\(07) No One Gets Left Behind - Mychael Danna.wav

Pre-gap length 0:00:02.00

Peak level 89.6 %
Track quality 100.0 %
Test CRC 891075CC
Copy CRC 891075CC
Accurately ripped (confidence 6) [01D0177A]
Copy OK

Track 8

Filename C:\Documents and Settings\Eric\My Documents\My Music\FLAC Archive\OST\Little Miss Sunshine\(08) Sufjan Stevens - Chicago - Sufjan Stevens.wav

Pre-gap length 0:00:02.00

Peak level 69.5 %
Track quality 100.0 %
Test CRC 7B5763AE
Copy CRC 7B5763AE
Accurately ripped (confidence 6) [7F75898B]
Copy OK

Track 9

Filename C:\Documents and Settings\Eric\My Documents\My Music\FLAC Archive\OST\Little Miss Sunshine\(09) We're Gonna Make It - Mychael Danna.wav

Pre-gap length 0:00:02.00

Peak level 96.3 %
Track quality 100.0 %
Test CRC 2BAAA4F9
Copy CRC 2BAAA4F9
Accurately ripped (confidence 6) [9F70EC80]
Copy OK

Track 10

Filename C:\Documents and Settings\Eric\My Documents\My Music\FLAC Archive\OST\Little Miss Sunshine\(10) Do You Think There's A Heaven - Mychael Danna.wav

Pre-gap length 0:00:02.00

Peak level 85.4 %
Track quality 100.0 %
Test CRC BBC4656F
Copy CRC BBC4656F
Accurately ripped (confidence 6) [351211A9]
Copy OK

Track 11

Filename C:\Documents and Settings\Eric\My Documents\My Music\FLAC Archive\OST\Little Miss Sunshine\(11) Catwalkin' - Tony Tisdale.wav

Pre-gap length 0:00:02.00

Peak level 79.5 %
Track quality 100.0 %
Test CRC 9B11D433
Copy CRC 9B11D433
Accurately ripped (confidence 6) [D5097264]
Copy OK

Track 12

Filename C:\Documents and Settings\Eric\My Documents\My Music\FLAC Archive\OST\Little Miss Sunshine\(12) Superfreak (Rocasound Revamp) - Rick James.wav

Pre-gap length 0:00:02.00

Peak level 79.1 %
Track quality 100.0 %
Test CRC 0DA9F2AD
Copy CRC 0DA9F2AD
Accurately ripped (confidence 6) [BEB0C3F6]
Copy OK

Track 13

Filename C:\Documents and Settings\Eric\My Documents\My Music\FLAC Archive\OST\Little Miss Sunshine\(13) La Llorona - Devotchka.wav

Pre-gap length 0:00:02.00

Peak level 100.0 %
Track quality 100.0 %
Test CRC 3DBB76AB
Copy CRC 3DBB76AB
Accurately ripped (confidence 6) [B1969908]
Copy OK

Track 14

Filename C:\Documents and Settings\Eric\My Documents\My Music\FLAC Archive\OST\Little Miss Sunshine\(14) How It Ends - Devotchka.wav

Pre-gap length 0:00:02.00

Peak level 97.6 %
Track quality 100.0 %
Test CRC 679D3C76
Copy CRC 679D3C76
Accurately ripped (confidence 6) [6C876BC6]
Copy OK


All tracks accurately ripped

No errors occurred

End of status report


VA - Little Miss Sunshine (Original Motion Picture Soundtrack) (2006)