Subcategories

Liberace - Liberace's Greatest Hits (1967)

Posted By: TestTickles
Liberace - Liberace's Greatest Hits (1967)

Liberace - Liberace's Greatest Hits (1967)
EAC Rip | FLAC with CUE and log | scans | 181 mb
MP3 CBR 320kbps | RAR | 85 mb
Genre: easy listening, classical

Liberace's Greatest Hits is the 1967 compilation album by Liberace. Released by Columbia Records, this is a look at some of his best songs of the time.

Liberace - Liberace's Greatest Hits (1967)

1. I'm Always Chasing Rainbows
2. Warsaw Concerto
3. Tchaikovsky's Piano Concerto No. 1
4. I'll Be Seeing You
5. Beer Barrel Polka
6. "Moonlight Sonata"
7. El Cumbanchero
8. Cement Mixer
9. Johnson Rag
10. September Song
11. As Time Goes By

Liberace - Liberace's Greatest Hits (1967)


Exact Audio Copy V1.1 from 23. June 2015

EAC extraction logfile from 19. July 2016, 11:47

Liberace / Liberace's Greatest Hits

Used drive : TEAC DVD-ROM DV-28SW Adapter: 1 ID: 0

Read mode : Secure
Utilize accurate stream : Yes
Defeat audio cache : Yes
Make use of C2 pointers : No

Read offset correction : 6
Overread into Lead-In and Lead-Out : No
Fill up missing offset samples with silence : Yes
Delete leading and trailing silent blocks : No
Null samples used in CRC calculations : Yes
Used interface : Native Win32 interface for Win NT & 2000
Gap handling : Appended to previous track

Used output format : Internal WAV Routines
Sample format : 44.100 Hz; 16 Bit; Stereo


TOC of the extracted CD

Track | Start | Length | Start sector | End sector
––––––––––––––––––––––––––––-
1 | 0:00.00 | 3:14.72 | 0 | 14621
2 | 3:14.72 | 6:01.28 | 14622 | 41724
3 | 9:16.25 | 3:20.12 | 41725 | 56736
4 | 12:36.37 | 3:01.33 | 56737 | 70344
5 | 15:37.70 | 1:27.42 | 70345 | 76911
6 | 17:05.37 | 5:57.60 | 76912 | 103746
7 | 23:03.22 | 3:04.35 | 103747 | 117581
8 | 26:07.57 | 3:35.50 | 117582 | 133756
9 | 29:43.32 | 2:07.23 | 133757 | 143304
10 | 31:50.55 | 3:11.50 | 143305 | 157679
11 | 35:02.30 | 3:03.02 | 157680 | 171406


Track 1

Filename C:\My Documents\My FLAC\Liberace - Liberace's Greatest Hits (1967) [FLAC]\01 - I'm Always Chasing Rainbows.wav

Pre-gap length 0:00:02.00

Peak level 59.4 %
Extraction speed 2.7 X
Track quality 100.0 %
Test CRC D5FE2530
Copy CRC D5FE2530
Accurately ripped (confidence 2) [2CD0A37E] (AR v1)
Copy OK

Track 2

Filename C:\My Documents\My FLAC\Liberace - Liberace's Greatest Hits (1967) [FLAC]\02 - Warsaw Concerto.wav

Pre-gap length 0:00:02.22

Peak level 51.8 %
Extraction speed 3.2 X
Track quality 100.0 %
Test CRC 980E5BB4
Copy CRC 980E5BB4
Accurately ripped (confidence 2) [49F4A59E] (AR v1)
Copy OK

Track 3

Filename C:\My Documents\My FLAC\Liberace - Liberace's Greatest Hits (1967) [FLAC]\03 - Tchaikovsky's Piano Concerto No. 1.wav

Pre-gap length 0:00:02.03

Peak level 56.8 %
Extraction speed 2.7 X
Track quality 99.9 %
Test CRC 59EC9B13
Copy CRC 59EC9B13
Accurately ripped (confidence 2) [968EB5BD] (AR v1)
Copy OK

Track 4

Filename C:\My Documents\My FLAC\Liberace - Liberace's Greatest Hits (1967) [FLAC]\04 - I'll Be Seeing You.wav

Pre-gap length 0:00:02.15

Peak level 71.8 %
Extraction speed 3.3 X
Track quality 100.0 %
Test CRC A51982FB
Copy CRC A51982FB
Accurately ripped (confidence 2) [7EC7A440] (AR v1)
Copy OK

Track 5

Filename C:\My Documents\My FLAC\Liberace - Liberace's Greatest Hits (1967) [FLAC]\05 - Beer Barrel Polka.wav

Pre-gap length 0:00:01.63

Peak level 79.5 %
Extraction speed 2.8 X
Track quality 100.0 %
Test CRC AED229CF
Copy CRC AED229CF
Accurately ripped (confidence 2) [FE7D8230] (AR v1)
Copy OK

Track 6

Filename C:\My Documents\My FLAC\Liberace - Liberace's Greatest Hits (1967) [FLAC]\06 - Moonlight Sonata.wav

Pre-gap length 0:00:02.72

Peak level 51.8 %
Extraction speed 4.1 X
Track quality 100.0 %
Test CRC 031988DB
Copy CRC 031988DB
Accurately ripped (confidence 2) [CFAD04A9] (AR v1)
Copy OK

Track 7

Filename C:\My Documents\My FLAC\Liberace - Liberace's Greatest Hits (1967) [FLAC]\07 - El Cumbanchero.wav

Pre-gap length 0:00:02.35

Peak level 60.3 %
Extraction speed 4.0 X
Track quality 100.0 %
Test CRC 36E3AF0C
Copy CRC 36E3AF0C
Accurately ripped (confidence 2) [074517B0] (AR v1)
Copy OK

Track 8

Filename C:\My Documents\My FLAC\Liberace - Liberace's Greatest Hits (1967) [FLAC]\08 - Cement Mixer.wav

Pre-gap length 0:00:02.32

Peak level 72.4 %
Extraction speed 4.2 X
Track quality 100.0 %
Test CRC 3A77B0D3
Copy CRC 3A77B0D3
Accurately ripped (confidence 2) [59D4A962] (AR v1)
Copy OK

Track 9

Filename C:\My Documents\My FLAC\Liberace - Liberace's Greatest Hits (1967) [FLAC]\09 - Johnson Rag.wav

Pre-gap length 0:00:02.57

Peak level 60.0 %
Extraction speed 3.7 X
Track quality 100.0 %
Test CRC 4A3EEBFC
Copy CRC 4A3EEBFC
Accurately ripped (confidence 2) [3D37C00D] (AR v1)
Copy OK

Track 10

Filename C:\My Documents\My FLAC\Liberace - Liberace's Greatest Hits (1967) [FLAC]\10 - September Song.wav

Pre-gap length 0:00:01.63

Peak level 56.8 %
Extraction speed 4.2 X
Track quality 100.0 %
Test CRC E19C3070
Copy CRC E19C3070
Accurately ripped (confidence 2) [A0BD6470] (AR v1)
Copy OK

Track 11

Filename C:\My Documents\My FLAC\Liberace - Liberace's Greatest Hits (1967) [FLAC]\11 - As Time Goes By.wav

Pre-gap length 0:00:03.10

Peak level 46.4 %
Extraction speed 4.4 X
Track quality 100.0 %
Test CRC 8409C2A1
Copy CRC 8409C2A1
Accurately ripped (confidence 2) [2B1B0FAF] (AR v1)
Copy OK


All tracks accurately ripped

No errors occurred

End of status report

–– CUETools DB Plugin V2.1.6

[CTDB TOCID: 4kr81DVr9dKOJZ.Gy2goy32VLfs-] found
Submit result: 4kr81DVr9dKOJZ.Gy2goy32VLfs- has been confirmed
Track | CTDB Status
1 | (5/5) Accurately ripped
2 | (5/5) Accurately ripped
3 | (5/5) Accurately ripped
4 | (5/5) Accurately ripped
5 | (5/5) Accurately ripped
6 | (5/5) Accurately ripped
7 | (5/5) Accurately ripped
8 | (5/5) Accurately ripped
9 | (5/5) Accurately ripped
10 | (5/5) Accurately ripped
11 | (5/5) Accurately ripped


==== Log checksum 1B3BAA10746C545B6AFFCAC255539F8E630235664090E83D52F8DDC0D51BBF38 ====
NITROFLARE (FLAC)
NITROFLARE (MP3)