Subcategories
Please register here if you want to download anything!

If domain in your address bar is different from the list below
PLEASE LEAVE THAT SITE IMMEDIATELY
❗IT'S A DANGEROUS FAKE❗



Spicy Magazines for Men! ;-)

Living Colour - Love Rears Its Ugly Head (US CD5) (1991) {Epic} **[RE-UP]**

Posted By: TestTickles
Living Colour - Love Rears Its Ugly Head (US CD5) (1991) {Epic} **[RE-UP]**

Living Colour - Love Rears Its Ugly Head (US CD5) (1991) {Epic}
EAC Rip | FLAC with CUE and log | scans | 159 mb
MP3 CBR 320kbps | RAR | 56 mb
Genre: hard rock, R&B, soul, alternative, house, dance, club

Love Rears Its Ugly Head is the 1991 single by black rockers Living Colour. This was the second single in support of Living Colour's second album Time's Up. While the original versions of both songs are rock, the mixes of "Love Rears Its Ugly Head" have a bit of hip-hop flavor, while the mixes of "Elvis Is Dead" are for fans of house music. This was released by Epic.

Living Colour - Love Rears Its Ugly Head (US CD5) (1991) {Epic} **[RE-UP]**

1. Love Rears Its Ugly Head (Soulpower Mix)
2. Love Rears Its Ugly Head (Hip Hop Mix)
3. Elvis Is Dead (Elvis Is In The House Mix)
4. Elvis Is Dead (Zans Is Dead Dub)

–-
Vernon Reid-guitars
Corey Glover-vocals
Muzz Skillings-bass
William Calhoun-drums

Produced by Ed Stasium

Tracks 1 & 2: additional production and remix by Soulshock & Cutfather
Tracks 3 & 4: additional remix and production by Tony Humphries

EAC extraction logfile from 4. July 2007, 10:03 for CD
Living Colour / Love Rears Its Ugly Head (US CD5)

Used drive : LITE-ON DVDRW SOHW-1633S Adapter: 0 ID: 0
Read mode : Secure with NO C2, accurate stream, disable cache
Read offset correction : 12
Overread into Lead-In and Lead-Out : No

Used output format : Internal WAV Routines
44.100 Hz; 16 Bit; Stereo

Other options :
Fill up missing offset samples with silence : Yes
Delete leading and trailing silent blocks : No
Installed external ASPI interface


Track 1
Filename D:\FLAC\Living Colour - Love Rears Its Ugly Head (US CD5) (1991) [FLAC] {Epic}\01 - Love Rears Its Ugly Head (Soulpower Mix).wav

Pre-gap length 0:00:02.00

Peak level 97.2 %
Track quality 99.9 %
Test CRC 0C05A327
Copy CRC 0C05A327
Copy OK

Track 2
Filename D:\FLAC\Living Colour - Love Rears Its Ugly Head (US CD5) (1991) [FLAC] {Epic}\02 - Love Rears Its Ugly Head (Hip Hop Mix).wav

Pre-gap length 0:00:00.40

Peak level 100.0 %
Track quality 100.0 %
Test CRC 754308F6
Copy CRC 754308F6
Copy OK

Track 3
Filename D:\FLAC\Living Colour - Love Rears Its Ugly Head (US CD5) (1991) [FLAC] {Epic}\03 - Elvis Is Dead (Elvis Is In The House Mix).wav

Pre-gap length 0:00:01.80

Peak level 100.0 %
Track quality 99.9 %
Test CRC 0E54B942
Copy CRC 0E54B942
Copy OK

Track 4
Filename D:\FLAC\Living Colour - Love Rears Its Ugly Head (US CD5) (1991) [FLAC] {Epic}\04 - Elvis Is Dead (Zans Is Dead Dub).wav

Pre-gap length 0:00:01.00

Peak level 100.0 %
Track quality 100.0 %
Test CRC 018C7083
Copy CRC 018C7083
Copy OK

No errors occured


End of status report


Living Colour - Love Rears Its Ugly Head (US CD5) (1991) {Epic} **[RE-UP]**