Subcategories

Lonnie Plaxico - Melange (2001)

Posted By: tiburon
Lonnie Plaxico - Melange (2001)

Lonnie Plaxico - Melange (2001)
EAC 1.0b3 | FLAC Image | Cue+Log | Full Scans 300dpi | 432MB + 5% Recovery
Genre: Jazz, Jazz Funk, Post-Bop
Lonnie Plaxico - Melange (2001)

With electronic fusion on the wane and the "young lions" of the '80s reaching middle age, a new hybrid of jazz cropped up on albums and in jazz clubs. This combination of styles borrows its harmonic qualities from post-bop but melds it with the rock-solid foundations of funk and soul. Increasingly, we are hearing a kind of hopped-up mixture of James Brown meets John Coltrane. The result is a rather provocative and fresh reading of jazz in the 21st century. Lonnie Plaxico's MELANGE is just that: a cornucopia of musical styles woven together forming a new and colorful musical fabric.
Track List
01. Squib Cakes [Chester Thompson] (4:44)
02. Melange (4:57)
03. Darkness (5:09)
04. Short Takes (7:22)
05. Miles II (5:28)
06. Paella (5:43)
07. Sunday Morning (5:31)
08. Beloved (5:34)
09. T.O.P. (6:37)
10. Patois (4:59)
11. Windy City (4:45)

musicians
Lonnie Plaxico - bass
Lionel Cordew - drums
Helen Sung - acoustic piano, electric piano
Tim Ries - tenor saxophone
Jeremy Pelt - trumpet
Lew Soloff - trumpet
Marcus Strickland - tenor saxophone
George Colligan - keyboards, organ, piano
Jeff Haynes - percussion

All songs written, composed and arranged by Lonnie Plaxico excert where indicated in notes

Produced by Lonnie Plaxico


Exact Audio Copy V1.0 beta 3 from 29. August 2011

EAC extraction logfile from 17. February 2013, 13:38

Lonnie Plaxico / Melange

Used drive : hp DVD A DH16AAL Adapter: 0 ID: 1

Read mode : Secure
Utilize accurate stream : Yes
Defeat audio cache : No
Make use of C2 pointers : No

Read offset correction : 6
Overread into Lead-In and Lead-Out : No
Fill up missing offset samples with silence : Yes
Delete leading and trailing silent blocks : No
Null samples used in CRC calculations : Yes
Used interface : Native Win32 interface for Win NT & 2000

Used output format : User Defined Encoder
Selected bitrate : 1024 kBit/s
Quality : High
Add ID3 tag : No
Command line compressor : C:\Program Files (x86)\Exact Audio Copy\Flac\flac.exe
Additional command line options : %ishigh%-V -p -l 12 -b 4096 -m -e -r 8%ishigh%%islow%-5%islow% –replay-gain -T "ARTIST=%artist%" -T "ALBUM=%albumtitle%" -T "TITLE=%title%" -T "DATE=%year%" -T "TRACKNUMBER=%tracknr%" -T "GENRE=%genre%" -T "ENSEMBLE=%albuminterpret%" -T "ALBUMARTIST=%albumartist%" -T "COMPOSER=%albumcomposer%" -T "DISCNUMBER=%cdnumber%" -T "TOTALDISCS=%totalcds%" -T "TOTALTRACKS=%numtracks%" -T "SOURCEMEDIA=CD" -T "COMMENT=%comment%" %hascover%-T "PICTURE=%coverfile%"%hascover% %source%


TOC of the extracted CD

Track | Start | Length | Start sector | End sector
––––––––––––––––––––––––––––-
1 | 0:00.00 | 4:44.02 | 0 | 21301
2 | 4:44.02 | 4:57.68 | 21302 | 43644
3 | 9:41.70 | 5:09.25 | 43645 | 66844
4 | 14:51.20 | 7:22.40 | 66845 | 100034
5 | 22:13.60 | 5:28.60 | 100035 | 124694
6 | 27:42.45 | 5:43.30 | 124695 | 150449
7 | 33:26.00 | 5:31.27 | 150450 | 175301
8 | 38:57.27 | 5:34.30 | 175302 | 200381
9 | 44:31.57 | 6:37.68 | 200382 | 230224
10 | 51:09.50 | 4:59.10 | 230225 | 252659
11 | 56:08.60 | 4:45.02 | 252660 | 274036


Range status and errors

Selected range

Filename C:\Users\M@ce\Music\Archives\Rips\Lonnie Plaxico - Melange.wav

Peak level 100.0 %
Extraction speed 8.9 X
Range quality 100.0 %
Test CRC 6A198CDB
Copy CRC 6A198CDB
Copy OK

No errors occurred


AccurateRip summary

Track 1 accurately ripped (confidence 4) [1822BD33] (AR v1)
Track 2 accurately ripped (confidence 4) [24CAB7DA] (AR v1)
Track 3 accurately ripped (confidence 4) [0518885F] (AR v1)
Track 4 accurately ripped (confidence 4) [807F5FA1] (AR v1)
Track 5 accurately ripped (confidence 4) [8318CD7D] (AR v1)
Track 6 accurately ripped (confidence 4) [AF39B778] (AR v1)
Track 7 accurately ripped (confidence 4) [A55A348A] (AR v1)
Track 8 accurately ripped (confidence 4) [2C3F3E88] (AR v1)
Track 9 accurately ripped (confidence 4) [05A57253] (AR v1)
Track 10 accurately ripped (confidence 4) [F17E0BF3] (AR v1)
Track 11 accurately ripped (confidence 4) [4C7CA4DC] (AR v1)

All tracks accurately ripped

End of status report

–– CUETools DB Plugin V2.1.4

[CTDB TOCID: t8ai1O17O_pJRe3Ie5K3DSwf68c-] found
Submit result: t8ai1O17O_pJRe3Ie5K3DSwf68c- has been confirmed
Track | CTDB Status
1 | (2/2) Accurately ripped
2 | (2/2) Accurately ripped
3 | (1/2) Accurately ripped
4 | (1/2) Accurately ripped
5 | (1/2) Accurately ripped
6 | (1/2) Accurately ripped
7 | (1/2) Accurately ripped
8 | (1/2) Accurately ripped
9 | (1/2) Accurately ripped
10 | (1/2) Accurately ripped
11 | (1/2) Accurately ripped


==== Log checksum 1C6DBA6CA771253261C645CD9DC43E74652013ACE245EFDBA75D8AD0805D33BC ====


––––––––––––––––––––––––––––––––––––––––
Analyzed: Lonnie Plaxico / Melange
––––––––––––––––––––––––––––––––––––––––

DR Peak RMS Duration Track
––––––––––––––––––––––––––––––––––––––––
DR9 0.00 dB -11.14 dB 4:44 01-Squib Cakes
DR9 0.00 dB -10.77 dB 4:58 02-Melange
DR12 0.00 dB -14.46 dB 5:09 03-Darkness
DR10 0.00 dB -12.10 dB 7:23 04-Short Take
DR10 0.00 dB -11.83 dB 5:29 05-Miles II
DR10 0.00 dB -11.30 dB 5:43 06-Paella
DR10 0.00 dB -12.99 dB 5:31 07-Sunday Morning
DR12 -0.04 dB -15.86 dB 5:34 08-Beloved
DR10 0.00 dB -11.11 dB 6:38 09-T.O.P.
DR8 0.00 dB -9.98 dB 4:59 10-Patois
DR9 0.00 dB -11.04 dB 4:45 11-Windy City
––––––––––––––––––––––––––––––––––––––––

Number of tracks: 11
Official DR value: DR10

Samplerate: 44100 Hz
Channels: 2
Bits per sample: 16
Bitrate: 883 kbps
Codec: FLAC
================================================================================

Lonnie Plaxico - 			  		 	 	  		 	    	 			   		   	  		 		   		  		  	 			   		 	 	  		  		  	 			   		   	  		 	 	  		  					 Melange (2001)
Lonnie Plaxico - Melange (2001)
Lonnie Plaxico - Melange (2001)


Rip by RUN