Subcategories

Lonnie Smith Trio - Purple Haze: Tribute to Jimi Hendrix (1995)

Posted By: gribovar
Lonnie Smith Trio - Purple Haze: Tribute to Jimi Hendrix (1995)

Lonnie Smith Trio - Purple Haze: Tribute to Jimi Hendrix (1995)
EAC Rip | APE (image+.cue+log) - 312 MB | MP3 CBR 320 kbps (LAME 3.93) - 145 MB | Covers (12 MB) included
Genre: Soul Jazz, Jazz-Funk | RAR 3% Rec. | Label: Musicmasters (01612-65135-2)

In the early '70s, Lonnie Smith's recordings frequently exhibited a debt to Jimi Hendrix's groundbreaking fusions, but he waited until 1994 to release Foxy Lady, a full-fledged tribute to the innovative guitarist. Foxy Lady was so successful that Smith decided to make another Hendrix album, again with John Abercrombie and Marvin "Smitty" Smith. Purple Haze is as entertaining as Foxy Lady - it's truly remarkable to hear how these blues-rockers can open up into soul-jazz numbers tinged with free jazz influences - and confirms not only Hendrix's composing talents, but also Smith's vision.
Tracklist:
01. Voodoo Child (Slight Return)
02. Up from the Skies
03. Gypsy Eyes
04. Purple Haze / Star Spangled Banner

Total time: 56:22

Exact Audio Copy V0.99 prebeta 4 from 23. January 2008

EAC extraction logfile from 1. December 2009, 17:42

Lonnie Smith Trio featuring John Abercrombie / Purple Haze - tribute to Jimi Hendrix

Used drive : HL-DT-STRW/DVD GCC-4242N Adapter: 1 ID: 0

Read mode : Secure
Utilize accurate stream : Yes
Defeat audio cache : Yes
Make use of C2 pointers : No

Read offset correction : 102
Overread into Lead-In and Lead-Out : No
Fill up missing offset samples with silence : Yes
Delete leading and trailing silent blocks : No
Null samples used in CRC calculations : Yes
Used interface : Native Win32 interface for Win NT & 2000

Used output format : Internal WAV Routines
Sample format : 44.100 Hz; 16 Bit; Stereo


TOC of the extracted CD

Track | Start | Length | Start sector | End sector
––––––––––––––––––––––––––––-
1 | 0:00.00 | 12:23.47 | 0 | 55771
2 | 12:23.47 | 9:49.33 | 55772 | 99979
3 | 22:13.05 | 16:57.67 | 99980 | 176321
4 | 39:10.72 | 17:10.58 | 176322 | 253629


Range status and errors

Selected range

Filename C:\_\EAC_Out\Out\Lonnie Smith Trio featuring John Abercrombie - Purple Haze - tribute to Jimi Hendrix\Lonnie Smith Trio featuring John Abercrombie - Purple Haze - tribute to Jimi Hendrix.wav

Peak level 99.8 %
Range quality 99.9 %
Copy CRC 9C247EBC
Copy OK

No errors occurred


AccurateRip summary

Track 1 accurately ripped (confidence 5) [D3A07025]
Track 2 accurately ripped (confidence 5) [19ED6C8B]
Track 3 accurately ripped (confidence 5) [B9BF3D3B]
Track 4 accurately ripped (confidence 5) [E27D9691]

All tracks accurately ripped

End of status report

[CUETools log; Date: 10.09.2019 21:06:52; Version: 2.1.4]
[CTDB TOCID: 0vDKsRU1w06q77pbnX2lzZkGQYs-] found.
Track | CTDB Status
1 | (21/21) Accurately ripped
2 | (20/21) Accurately ripped
3 | (21/21) Accurately ripped
4 | (18/21) Accurately ripped, or (3/21) differs in 1 samples @11:49:29
[AccurateRip ID: 0008efe8-0024641b-2a0d3504] found.
Track [ CRC | V2 ] Status
01 [d3a07025|99fe68f1] (06+04/15) Accurately ripped
02 [19ed6c8b|a7ef267d] (06+04/15) Accurately ripped
03 [b9bf3d3b|6a88cc4f] (06+04/14) Accurately ripped
04 [e27d9691|8be1ccbe] (06+03/14) Accurately ripped
Offsetted by -906:
01 [2df2ba03] (00/15) No match (V2 was not tested)
02 [e1b1f2c5] (00/15) No match (V2 was not tested)
03 [2ab2f863] (00/14) No match (V2 was not tested)
04 [19f9af05] (00/14) No match (V2 was not tested)
Offsetted by -703:
01 [a5dc5542] (00/15) No match (V2 was not tested)
02 [da83efd2] (00/15) No match (V2 was not tested)
03 [2bab43b7] (00/14) No match (V2 was not tested)
04 [0d70a794] (00/14) No match (V2 was not tested)

Track Peak [ CRC32 ] [W/O NULL] [ LOG ]
– 99,8 [9C247EBC] [4177ABB5] CRC32
01 96,8 [27E32B56] [5B7B6F82]
02 98,4 [67F2D7D6] [3C04530B]
03 93,4 [6239FEE1] [737DA206]
04 99,8 [AD898384] [35A1272E]

Thanks to barin99

See also:
Lonnie Smith - Gotcha' (1978) [Japanese Edition 2019]