Subcategories

Loredana Berté - Lorinedita (1983) [2016, Remastered Reissue]

Posted By: BlondStyle
Loredana Berté - Lorinedita (1983) [2016, Remastered Reissue]

Loredana Berté - Lorinedita (1983) [2016, Remastered Reissue]
Pop/Rock, Vocal, Chanson | EAC Rip | FLAC, Tracks+CUE+LOG+Full Scans (JPEG) | 33:45 Min | 234,25 Mb
Label: Warner Music Italia S.r.l. (EU) | Released: 2016-09-23 (1983)

Out on September 23, for the first time ever on CD, the Bertè's album originally released in 1983 on CGD label. Completely remasterd and with original artworks.
Loredana Berté - Lorinedita (1983) [2016, Remastered Reissue]

Loredana Berté - Lorinedita (1983) [2016, Remastered Reissue]


Release of this album: 1983 [LP CGD Records, Cat.# CGD 20367, Italy]
Release of this CD: 2016, September, 23 [CD Warner Music Italia S.r.l. (EU), Cat.# 5054197-3328-2-1 / UPC: 5054197332821]
This collection: © ℗ 1983 Warner Music Italia S.r.l.
A Warner Music Group Company.
Manufactured in the E.U.

Credits:
Design – Mario Convertino
Photography By – Mario Convertino
Producer, Realization – Mario Lavezzi
Remastered By – Audiomaster, Cologno Monzese
Remix – Piero Bravin


Tracklist:

01. Dan Dan (03:22)
(F.Leali, Mamared)
02. Preghiera (03:48)
(A. Cogliati, D.B. Bembo, O.Avogadro)
03. Risveglio (03:53)
(M. Lavezzi, O. Avogadro)
04. Sola (03:24)
(Daiano, G.P. Felisatti)
05. Era (02:31)
(A. Lo Vecchio, Lubiak, S. Shapiro)
06. Professore (03:42)
(D. Pace, M. Lavezzi, O. Avogadro)
07. Al Mercato Dell'Usato (04:25)
(F. Evangelisti, R. Zero, R. Conrado)
08. Io No (04:32)
(M. Lavezzi, O. Avogadro)
09. Selvaggia (04:08)
(A. Salerno, R. Pareti)

Originally ℗ 1983
Tracks 1, 9 are recorded in 1978
Tracks 2, 3, 6, 7 are recorded in 1979
Track 4 recorded in 1977
Track 5 recorded in 1975
Track 8 recorded in 1980


Exact Audio Copy V1.3 from 2. September 2016

EAC extraction logfile from 21. October 2016, 19:37

Loredana Berté / Lorinedita

Used drive : ASUS BC-12D2HT Adapter: 0 ID: 0

Read mode : Secure
Utilize accurate stream : Yes
Defeat audio cache : Yes
Make use of C2 pointers : No

Read offset correction : 6
Overread into Lead-In and Lead-Out : No
Fill up missing offset samples with silence : Yes
Delete leading and trailing silent blocks : No
Null samples used in CRC calculations : Yes
Used interface : Installed external ASPI interface
Gap handling : Appended to previous track

Used output format : User Defined Encoder
Selected bitrate : 1024 kBit/s
Quality : High
Add ID3 tag : No
Command line compressor : C:\Program Files (x86)\Exact Audio Copy\FLAC\FLAC.EXE
Additional command line options : -8 -V -T "ARTIST=%artist%" -T "TITLE=%title%" -T "ALBUM=%albumtitle%" -T "DATE=%year%" -T "TRACKNUMBER=%tracknr%" -T "GENRE=%genre%" -T "PERFORMER=%albuminterpret%" -T "COMPOSER=%composer%" %haslyrics%–tag-from-file=LYRICS="%lyricsfile%"%haslyrics% -T "ALBUMARTIST=%albumartist%" -T "DISCNUMBER=%cdnumber%" -T "TOTALDISCS=%totalcds%" -T "TOTALTRACKS=%numtracks%" -T "COMMENT= EAC Secure Mode, Test & Copy, AccurateRip, FLAC -8 %comment%" %source% -o %dest%


TOC of the extracted CD

Track | Start | Length | Start sector | End sector
––––––––––––––––––––––––––––-
1 | 0:00.00 | 3:21.73 | 0 | 15147
2 | 3:21.73 | 3:48.30 | 15148 | 32277
3 | 7:10.28 | 3:52.53 | 32278 | 49730
4 | 11:03.06 | 3:24.19 | 49731 | 65049
5 | 14:27.25 | 2:30.46 | 65050 | 76345
6 | 16:57.71 | 3:41.61 | 76346 | 92981
7 | 20:39.57 | 4:25.35 | 92982 | 112891
8 | 25:05.17 | 4:31.55 | 112892 | 133271
9 | 29:36.72 | 4:08.24 | 133272 | 151895


Track 1

Filename C:\EAC\01. Loredana Berté - Dan dan.wav

Pre-gap length 0:00:02.00

Peak level 97.4 %
Extraction speed 4.1 X
Track quality 100.0 %
Test CRC AC439BC6
Copy CRC AC439BC6
Track not present in AccurateRip database
Copy OK

Track 2

Filename C:\EAC\02. Loredana Berté - Preghiera.wav

Peak level 97.4 %
Extraction speed 4.0 X
Track quality 99.9 %
Test CRC CD23942C
Copy CRC CD23942C
Track not present in AccurateRip database
Copy OK

Track 3

Filename C:\EAC\03. Loredana Berté - Risveglio.wav

Peak level 97.4 %
Extraction speed 4.2 X
Track quality 99.9 %
Test CRC 4DE645D0
Copy CRC 4DE645D0
Track not present in AccurateRip database
Copy OK

Track 4

Filename C:\EAC\04. Loredana Berté - Sola.wav

Peak level 97.4 %
Extraction speed 5.3 X
Track quality 100.0 %
Test CRC 14D58AAD
Copy CRC 14D58AAD
Track not present in AccurateRip database
Copy OK

Track 5

Filename C:\EAC\05. Loredana Berté - Era.wav

Peak level 97.4 %
Extraction speed 5.2 X
Track quality 100.0 %
Test CRC B6D6E568
Copy CRC B6D6E568
Track not present in AccurateRip database
Copy OK

Track 6

Filename C:\EAC\06. Loredana Berté - Professore.wav

Peak level 98.0 %
Extraction speed 5.8 X
Track quality 100.0 %
Test CRC 4B6953FF
Copy CRC 4B6953FF
Track not present in AccurateRip database
Copy OK

Track 7

Filename C:\EAC\07. Loredana Berté - Al mercato dell'usato.wav

Peak level 98.0 %
Extraction speed 6.3 X
Track quality 100.0 %
Test CRC 4CB54232
Copy CRC 4CB54232
Track not present in AccurateRip database
Copy OK

Track 8

Filename C:\EAC\08. Loredana Berté - Io no.wav

Peak level 98.7 %
Extraction speed 6.6 X
Track quality 100.0 %
Test CRC D2D061B5
Copy CRC D2D061B5
Track not present in AccurateRip database
Copy OK

Track 9

Filename C:\EAC\09. Loredana Berté - Selvaggia.wav

Peak level 97.4 %
Extraction speed 6.0 X
Track quality 99.9 %
Test CRC E47C15B6
Copy CRC E47C15B6
Track not present in AccurateRip database
Copy OK


None of the tracks are present in the AccurateRip database

No errors occurred

End of status report

–– CUETools DB Plugin V2.1.6

[CTDB TOCID: Um.ggreECtbLbJ0f9dOyv1tFP0s-] disk not present in database
Submit result: Um.ggreECtbLbJ0f9dOyv1tFP0s- has been uploaded


==== Log checksum 31151F4508F61C28C10DE2AF4635E102A9FCBB88A3DAA55613AFDBF2B4F46421 ====

foobar2000 1.3.13 beta 1 / Dynamic Range Meter 1.1.1
log date: 2016-11-11 23:53:22

––––––––––––––––––––––––––––––––––––––––
Analyzed: Loredana Berté / Lorinedita
––––––––––––––––––––––––––––––––––––––––

DR Peak RMS Duration Track
––––––––––––––––––––––––––––––––––––––––
DR9 -0.23 dB -11.54 dB 3:22 01-Dan dan
DR9 -0.23 dB -12.31 dB 3:48 02-Preghiera
DR11 -0.23 dB -13.68 dB 3:53 03-Risveglio
DR9 -0.23 dB -12.78 dB 3:24 04-Sola
DR11 -0.23 dB -13.35 dB 2:31 05-Era
DR11 -0.17 dB -13.40 dB 3:42 06-Professore
DR10 -0.17 dB -12.61 dB 4:25 07-Al mercato dell'usato
DR10 -0.11 dB -11.19 dB 4:32 08-Io no
DR9 -0.23 dB -12.77 dB 4:08 09-Selvaggia
––––––––––––––––––––––––––––––––––––––––

Number of tracks: 9
Official DR value: DR10

Samplerate: 44100 Hz
Channels: 2
Bits per sample: 16
Bitrate: 880 kbps
Codec: FLAC
================================================================================

All thanks to the original releaser
Nitroflare
password: BlondStyle