Subcategories

Los Straitjackets - Albums Collection 1995-2014 (16CD) [Re-Up + Upgrade]

Posted By: Designol
Los Straitjackets - Albums Collection 1995-2014 (16CD) [Re-Up + Upgrade]

Los Straitjackets - Albums Collection 1995-2014 [16CD]
EAC | FLAC | Image (Cue&Log) ~ 4.5 Gb (incl 5%) | Mp3 (CBR320) ~ 2 Gb (incl 5%) | Scans included
Genre: Surf Rock, Rock 'N' Roll, Instrumental Rock, Garage Rock | Time: 10:13:51

Collection includes 16 albums by American instrumental rock band Los Straitjackets. Los Straitjackets is a Nashville based band known primarily for performing instrumental surf music.

Mixing the familiar sounds of Dick Dale, Duane Eddy, and the Ventures, Los Straitjackets create their own version of energetic surf guitar twang, complete with Mexican wrestling masks. Los Straitjackets began in the summer of 1988. Eddie Angel (guitar), L.J. "Jimmy" Lester (drums), and Danny Amis (guitar) formed an instrumental trio called the Straitjackets, which played local Nashville shows throughout the summer. After a six-year hiatus, the Straitjackets reunited, added E. Scott Esbeck on bass, and changed their name to Los Straitjackets. In November 1994, the band signed with Upstart Records. They released their first single, "Gatecrasher" b/w "Lonely Apache," on Sympathy for the Record Industry in February 1995. In March 1995, the band's first album, The Utterly Fantastic and Totally Unbelievable Sound of los Straitjackets, was released on Upstart. That summer the band went on its first major U.S. tour. In June 1996, the band released its second album, ¡Viva!; it was the last appearance on a Los Straitjackets album for Esbeck, who left the group in 1998, with Pete Curry taking over on bass. The Velvet Touch of los Straitjackets, their first album for Yep Roc Records, followed in 1999 and Damas y Caballeros! surfaced two years later. The mysterious musos decided to move on to holiday music the next year, and tackled several Christmas favorites on the fun 'Tis the Season for los Straitjackets! Supersonic Guitars in 3-D arrived in 2003, followed by a collection of outtakes, live tracks, and rarities called Vivos y los Raros in 2004. Twist Party dropped in 2006, which introduced new drummer Jason "Teen Beat" Smay, replacing Jimmy Lester who left the group the previous year. After releasing the all-star Rock en Español, Vol. 1 in 2007, which teamed the instrumentalists with a handful of vocalists, Los Straitjackets returned in 2009 with The Further Adventures of Los Straitjackets, a back-to-basics album that nixed guest singers and horns in favor of the Straitjackets core rocking guitar sound. The quartet expanded to a quintet in 2010 when Los Straitjackets added a third guitarist, Greg Townson. 2012's Jet Set, which marked the return of Amis to the band after recovering from a difficult illness, was recorded at the Pow Wow Fun Room Studios in Los Angeles, produced by Janne Haavisto, and featured guest spots from the Basic Cable Horns (best-known for their work on the Conan television show) and Finnish actress and musician Irina Bjorklund. The album also featured a new drummer, Chris Sprague, who took over from Jason Smay. In 2013, los Straightjackets shared billing with the Fleshtones and Southern Culture on the Skids for an album of horror-themed retro-rock, Mondo Zombie Boogaloo. Los Straitjackets renewed their commitment to "instrumental music with vocals" on the 2014 release Sings The Great Instrumental Hits, with Deke Dickerson (fittingly a man more celebrated as a guitarist than a singer) warbling little-heard lyrics to popular instrumental tunes, including "Pipeline," "Walk Don't Run," and "Honky Tonk."

Biography by Tracy Frey, Allmusic.com

Los Straitjackets - Albums Collection 1995-2014 (16CD) [Re-Up + Upgrade]





Los Straitjackets - Albums Collection 1995-2014 (16CD) [Re-Up + Upgrade]

Los Straitjackets - The Utterly Fantastic and Totally Unbelievable Sound of Los Straitjackets (1995)
EAC | FLAC | Image (Cue&Log) ~ 313 Mb (incl 5%) | Mp3 (CBR320) ~ 137 Mb (incl 5%) | Scans included
Label: Upstart Records | # UPSTART CD 015 | Time: 00:39:48

Los Straitjackets is one of the top dogs in the surf rock scene, and if you pop this disc into your cd player, you'll see why. This is some top notch surf/instrumental rock done by folks who obviously love this kind of music. It's very apparent that these guys are having alot of fun playing this music. Fun is something missing from alot of groups anymore. When I wanna take a break from my progressive rock snobbery and just have fun, these guys are great way to do it. If you ask me, you really can't go wrong with any Los Straitjackets material, but their debut is hard to top, and I would suggest it as your first one if you decide to get any. Slipknot can stick it where the sun don't shine.

Review by Stanley Runk, Amazon.com

Tracklist:

01. Fury! (02:11)
02. G-Man (03:19)
03. Straightjacket (03:50)
04. Jetty Motel (02:32)
05. Car-Hop (02:14)
06. Caveman (02:47)
07. Tailspin (04:06)
08. University Blvd (02:51)
09. Gatecrusher (02:03)
10. Itchy Chicken (02:41)
11. Della Street (03:58)
12. Calhoun Surf (01:53)
13. Rampage (02:28)
14. Lynxtail (02:51)


Exact Audio Copy V0.99 prebeta 5 from 4. May 2009

Отчёт EAC об извлечении, выполненном 8. августа 2012, 20:55

Los Straitjackets / The Utterly Fantastic and Totally Unbelievable Sound of Los Straitjackets

Дисковод: PLEXTOR DVDR PX-880SA Adapter: 1 ID: 0

Режим чтения : Достоверность
Использование точного потока : Да
Отключение кэша аудио : Да
Использование указателей C2 : Нет

Коррекция смещения при чтении : 6
Способность читать области Lead-in и Lead-out : Нет
Заполнение пропущенных сэмплов тишиной : Да
Удаление блоков с тишиной в начале и конце : Нет
При вычислениях CRC использовались нулевые сэмплы : Да
Интерфейс : Установленный внешний ASPI-интерфейс

Выходной формат : Пользовательский кодировщик
Выбранный битрейт : 1024 kBit/s
Качество : Высокий
Добавление ID3-тэга : Нет
Утилита сжатия : C:\Program Files\Exact Audio Copy\FLAC\FLAC.EXE
Дополнительные параметры : -6 -V -T "ARTIST=%a" -T "TITLE=%t" -T "ALBUM=%g" -T "DATE=%y" -T "TRACKNUMBER=%n" -T "GENRE=%m" -T "COMMENT=%e" %s -o %d


TOC извлечённого CD

Трек | Старт | Длительность | Начальный сектор | Конечный сектор
––––––––––––––––––––––––––––––––––-
1 | 0:00.00 | 2:11.00 | 0 | 9824
2 | 2:11.00 | 3:19.00 | 9825 | 24749
3 | 5:30.00 | 3:50.00 | 24750 | 41999
4 | 9:20.00 | 2:33.37 | 42000 | 53511
5 | 11:53.37 | 2:14.38 | 53512 | 63599
6 | 14:08.00 | 2:47.37 | 63600 | 76161
7 | 16:55.37 | 4:06.38 | 76162 | 94649
8 | 21:02.00 | 2:52.00 | 94650 | 107549
9 | 23:54.00 | 2:04.00 | 107550 | 116849
10 | 25:58.00 | 2:43.00 | 116850 | 129074
11 | 28:41.00 | 3:59.37 | 129075 | 147036
12 | 32:40.37 | 1:53.00 | 147037 | 155511
13 | 34:33.37 | 2:28.38 | 155512 | 166649
14 | 37:02.00 | 2:51.60 | 166650 | 179534


Характеристики диапазона извлечения и сообщения об ошибках

Выбранный диапазон

Имя файла F:\BitComet\Los Straitjackets(flac)\1995 - The Utterly Fantastic and Totally Unbelievable Sound of Los Straitjacket\Los Straitjackets - The Utterly Fantastic and Totally Unbelievable Sound of Los Straitjackets.wav

Пиковый уровень 96.8 %
Качество диапазона 100.0 %
CRC теста 442170E8
CRC копии 442170E8
Копирование… OK

Ошибок не произошло


AccurateRip: сводка

Трек 1 точное извлечение (доверие 6) [6426DC88]
Трек 2 точное извлечение (доверие 6) [2CBABB30]
Трек 3 точное извлечение (доверие 6) [70C51798]
Трек 4 точное извлечение (доверие 6) [4B27C091]
Трек 5 точное извлечение (доверие 6) [650791EB]
Трек 6 точное извлечение (доверие 6) [931725E9]
Трек 7 точное извлечение (доверие 6) [775F2A6C]
Трек 8 точное извлечение (доверие 6) [31900B7B]
Трек 9 точное извлечение (доверие 6) [6869883D]
Трек 10 точное извлечение (доверие 6) [CF0F1B4B]
Трек 11 точное извлечение (доверие 6) [91FC7015]
Трек 12 точное извлечение (доверие 6) [537C9B9F]
Трек 13 точное извлечение (доверие 6) [862177C8]
Трек 14 точное извлечение (доверие 6) [B4E44856]

Все треки извлечены точно

Конец отчёта




Los Straitjackets - Albums Collection 1995-2014 (16CD) [Re-Up + Upgrade]

Los Straitjackets - ¡Viva! Los Straitjackets (1996)
EAC | FLAC | Image (Cue&Log) ~ 290 Mb (incl 5%) | Mp3 (CBR320) ~ 134 Mb (incl 5%) | Scans included
Label: Upstart Records | # UPSTART CD 031 | Time: 00:37:56

The Shadows/Ventures of the '90s arrive as a quarter in Mexican wrestling masks, burgundy turtlenecks, black jeans, black Converse and bedecked in silver sun pendants. Live los Straitjackets effect an inscrutable demeanor and rock from a stage uncluttered with monitors. Because they actually listen to each other, the drummer sits in their midst at the stage's edge. The band is tight, fused and rocking. For me, there is no better guitar-based instrumental rock album of 1997.

Review by Tom Schulte, Allmusic.com

Tracklist:

01. Cavalcade (02:33)
02. The Casbah (02:40)
03. Wrong Planet (01:45)
04. Lonely Apache (02:54)
05. Outta Gear (02:02)
06. Pacifica (03:00)
07. Espionage (02:24)
08. Swampfire (03:53)
09. Lawnmower (02:14)
10. Lurking in the Shadows (02:31)
11. Brains and Eggs (03:07)
12. Venturing Out (02:47)
13. Tsunami! (02:31)
14. Nightmare in Monte Cristo (03:29)


Exact Audio Copy V0.99 prebeta 5 from 4. May 2009

Отчёт EAC об извлечении, выполненном 7. августа 2012, 19:32

Los Straitjackets / Viva!

Дисковод: PLEXTOR DVDR PX-880SA Adapter: 1 ID: 0

Режим чтения : Достоверность
Использование точного потока : Да
Отключение кэша аудио : Да
Использование указателей C2 : Нет

Коррекция смещения при чтении : 6
Способность читать области Lead-in и Lead-out : Нет
Заполнение пропущенных сэмплов тишиной : Да
Удаление блоков с тишиной в начале и конце : Нет
При вычислениях CRC использовались нулевые сэмплы : Да
Интерфейс : Установленный внешний ASPI-интерфейс

Выходной формат : Пользовательский кодировщик
Выбранный битрейт : 1024 kBit/s
Качество : Высокий
Добавление ID3-тэга : Нет
Утилита сжатия : C:\Program Files\Exact Audio Copy\FLAC\FLAC.EXE
Дополнительные параметры : -6 -V -T "ARTIST=%a" -T "TITLE=%t" -T "ALBUM=%g" -T "DATE=%y" -T "TRACKNUMBER=%n" -T "GENRE=%m" -T "COMMENT=%e" %s -o %d


TOC извлечённого CD

Трек | Старт | Длительность | Начальный сектор | Конечный сектор
––––––––––––––––––––––––––––––––––-
1 | 0:00.00 | 2:33.50 | 0 | 11524
2 | 2:33.50 | 2:40.22 | 11525 | 23546
3 | 5:13.72 | 1:45.73 | 23547 | 31494
4 | 6:59.70 | 2:55.65 | 31495 | 44684
5 | 9:55.60 | 2:04.27 | 44685 | 54011
6 | 12:00.12 | 3:00.65 | 54012 | 67576
7 | 15:01.02 | 2:24.60 | 67577 | 78436
8 | 17:25.62 | 3:53.35 | 78437 | 95946
9 | 21:19.22 | 2:15.43 | 95947 | 106114
10 | 23:34.65 | 2:31.02 | 106115 | 117441
11 | 26:05.67 | 3:08.05 | 117442 | 131546
12 | 29:13.72 | 2:47.38 | 131547 | 144109
13 | 32:01.35 | 2:32.57 | 144110 | 155566
14 | 34:34.17 | 3:29.53 | 155567 | 171294


Характеристики диапазона извлечения и сообщения об ошибках

Выбранный диапазон

Имя файла F:\BitComet\Los Straitjackets(flac)\1996-Viva!\Los Straitjackets - Viva!.wav

Пиковый уровень 98.8 %
Качество диапазона 99.9 %
CRC теста 18A2B7A0
CRC копии 18A2B7A0
Копирование… OK

Ошибок не произошло


AccurateRip: сводка

Трек 1 точное извлечение (доверие 18) [A89DBD98]
Трек 2 точное извлечение (доверие 18) [5237E79D]
Трек 3 точное извлечение (доверие 18) [135B6825]
Трек 4 точное извлечение (доверие 18) [81728C8F]
Трек 5 точное извлечение (доверие 18) [6333B45A]
Трек 6 точное извлечение (доверие 18) [6F19FB73]
Трек 7 точное извлечение (доверие 18) [0C11F6DB]
Трек 8 точное извлечение (доверие 18) [196B129B]
Трек 9 точное извлечение (доверие 18) [445CE183]
Трек 10 точное извлечение (доверие 18) [54CBD2A5]
Трек 11 точное извлечение (доверие 18) [57B54A4E]
Трек 12 точное извлечение (доверие 18) [7407EEE1]
Трек 13 точное извлечение (доверие 18) [4F421309]
Трек 14 точное извлечение (доверие 18) [780123AC]

Все треки извлечены точно

Конец отчёта




Los Straitjackets - Albums Collection 1995-2014 (16CD) [Re-Up + Upgrade]

Los Straitjackets - The Velvet Touch of Los Straitjackets (1999)
EAC | FLAC | Image (Cue&Log) ~ 293 Mb (incl 5%) | Mp3 (CBR320) ~ 113 Mb (incl 5%) | Scans included
Label: Yep Roc Records | # CD YEP 2013 | Time: 00:37:08

Los Straitjackets' third album, The Velvet Touch of los Straitjackets, contains more witty, knowing guitar instrumentals that appropriate the best of surf, jangly pop, rockabilly, and spaghetti Western soundtracks with aplomb. Driving surf numbers like "Tempest" and "Hornet's Nest" are mixed with sweeter sounds like "Close to Champaign" and a cover of "My Heart Will Go On" that places the song closer to the Pacific shoreline than Atlantic icebergs. Klezmer and Mexican elements flavor songs like "Tabouli" and "Tijuana Boots," and while the group's inherent cleverness and kitsch occasionally veer into self-parody, Velvet Touch is another solid effort from an always entertaining band.

Review by Heather Phares, Allmusic.com

Tracklist:

01. Kawanga! (02:25)
02. Rockula (02:46)
03. Close to Champaign (03:53)
04. Hornet's Nest (03:00)
05. My Heart Will Go On (Love theme from Titanic) (04:29)
06. Tempest (03:22)
07. Tijuana Boots (02:51)
08. Sing, Sing, Sing (03:22)
09. Tabouli (03:39)
10. Sterno (01:54)
11. State Fair (02:34)
12. All That Glitters (02:47)


Exact Audio Copy V0.99 prebeta 4 from 23. January 2008

Отчёт EAC об извлечении, выполненном 26. ноября 2009, 9:16

Los Straitjackets / The Velvet Touch of…

Дисковод: PLEXTOR DVDR PX-880SA Adapter: 1 ID: 1

Режим чтения : Достоверность
Использование точного потока : Да
Отключение кэша аудио : Да
Использование указателей C2 : Нет

Коррекция смещения при чтении : 6
Способность читать области Lead-in и Lead-out : Нет
Заполнение пропущенных сэмплов тишиной : Да
Удаление блоков с тишиной в начале и конце : Нет
При вычислениях CRC использовались нулевые сэмплы : Да
Интерфейс : Установленный внешний ASPI-интерфейс

Выходной формат : Пользовательский кодировщик
Выбранный битрейт : 768 kBit/s
Качество : Высокий
Добавление ID3-тэга : Нет
Утилита сжатия : C:\Program Files\Exact Audio Copy\FLAC\FLAC.EXE
Дополнительные параметры : -6 -V -T "ARTIST=%a" -T "TITLE=%t" -T "ALBUM=%g" -T "DATE=%y" -T "TRACKNUMBER=%n" -T "GENRE=%m" -T "COMMENT=%e" %s -o %d


TOC извлечённого CD

Трек | Старт | Длительность | Начальный сектор | Конечный сектор
––––––––––––––––––––––––––––––––––-
1 | 0:00.00 | 2:25.73 | 0 | 10947
2 | 2:25.73 | 2:46.25 | 10948 | 23422
3 | 5:12.23 | 3:53.67 | 23423 | 40964
4 | 9:06.15 | 3:00.63 | 40965 | 54527
5 | 12:07.03 | 4:29.07 | 54528 | 74709
6 | 16:36.10 | 3:22.63 | 74710 | 89922
7 | 19:58.73 | 2:51.25 | 89923 | 102772
8 | 22:50.23 | 3:22.72 | 102773 | 117994
9 | 26:13.20 | 3:39.20 | 117995 | 134439
10 | 29:52.40 | 1:54.28 | 134440 | 143017
11 | 31:46.68 | 2:34.52 | 143018 | 154619
12 | 34:21.45 | 2:47.18 | 154620 | 167162


Характеристики диапазона извлечения и сообщения об ошибках

Выбранный диапазон

Имя файла I:\BitComet\Los Straitjackets(flac)\The Velvet Touch of\Los Straitjackets - The Velvet Touch of….wav

Пиковый уровень 98.8 %
Качество диапазона 99.9 %
CRC копии 573603E8
Копирование… OK

Ошибок не произошло


AccurateRip: сводка

Трек 1 точное извлечение (доверие 15) [7E81EBD1]
Трек 2 точное извлечение (доверие 14) [AFD56A72]
Трек 3 точное извлечение (доверие 14) [AB486B31]
Трек 4 точное извлечение (доверие 15) [E2FEC84E]
Трек 5 точное извлечение (доверие 14) [842D327A]
Трек 6 точное извлечение (доверие 15) [B14C1D21]
Трек 7 точное извлечение (доверие 15) [48C477BC]
Трек 8 точное извлечение (доверие 14) [4897BAA7]
Трек 9 точное извлечение (доверие 15) [257B6E0B]
Трек 10 точное извлечение (доверие 15) [1DCC6AB7]
Трек 11 точное извлечение (доверие 15) [D69B4F97]
Трек 12 точное извлечение (доверие 14) [23CCB602]

Все треки извлечены точно

Конец отчёта




Los Straitjackets - Albums Collection 1995-2014 (16CD) [Re-Up + Upgrade]

Los Straitjackets - Damas y Caballeros! (2001)
EAC | FLAC | Image (Cue&Log) ~ 499 Mb (incl 5%) | Mp3 (CBR320) ~ 197 Mb (incl 5%) | Scans included
Label: Yep Roc Records | # CD YEP 2025 | Time: 01:05:41

Welcome to the excitement of one entire los Straitjackets show just the way it happened during the summer of 2000 at The Foothill Tavern in Long Beach, CA. And where better to encounter the surf-riding, mask-wearing, Spanish-speaking garage rockin' of "America's premier instrumentalists" as their pre-recorded introduction claims? It's a wild, wooly 60 minutes of 19 nonstop twang/trash rock tunes delivered with precision and spitfire riffs blazing. While many of these tracks, like the quartet's innovative take on Celine Dion's smarmy "My Heart Will Go On (Love Theme from Titanic)," have turned up on three previous los Straitjackets albums, the black Converse-shod foursome add six covers of more like-minded classics to their set. Even though their jittery roots originals are well constructed, it's still a kick to hear them slow dance to Santo & Johnny's "Sleepwalk" and Floyd Cramer's "Last Date," as well as gallop through Link Wray's "Rawhide" and smoke into "I'm Branded" along with Louis Prima's "Sing Sing Sing" like they've been playing them all their life, which they probably have. Rather than rip into an obvious Ventures track, they unearth an obscurity with the appropriately titled "Driving Guitars" to pay tribute to their most obvious influence. Sure, it starts to sound a bit samey after a while, but the band's obvious glee in what they're doing and the energy they infuse to these songs, spurred on by a sold-out club crowd, keeps the show lively for its entirety. Not quite as good as being there to experience the band in full regalia with their syncopated stage moves, this hour-long souvenir is the next best thing.

Review by Hal Horowitz, Allmusic.com

Tracklist:

01. Introduction of Los Straitjackets (01:40)
02. Outta Gear (02:43)
03. State Fair (02:37)
04. Casbah (03:30)
05. Calhoun Surf (01:49)
06. Itchy Chicken (04:40)
07. Last Date (02:49)
08. Kawanga! (02:24)
09. I'm Branded (03:11)
10. My Heart Will Go On (Love Theme From Titanic) (04:25)
11. Squad Car (01:59)
12. Rockula (03:07)
13. Tempest (03:30)
14. Lynxtail (05:26)
15. Tailspin (04:14)
16. Pacifica (03:08)
17. Driving Guitars (01:49)
18. Sing Sing Sing (04:24)
19. Sleepwalk (04:03)
20. Rawhide (04:01)


Exact Audio Copy V0.99 prebeta 4 from 23. January 2008

Отчёт EAC об извлечении, выполненном 26. ноября 2009, 11:27

Los Straitjackets / Damas y Caballeros!

Дисковод: PLEXTOR DVDR PX-880SA Adapter: 1 ID: 1

Режим чтения : Достоверность
Использование точного потока : Да
Отключение кэша аудио : Да
Использование указателей C2 : Нет

Коррекция смещения при чтении : 6
Способность читать области Lead-in и Lead-out : Нет
Заполнение пропущенных сэмплов тишиной : Да
Удаление блоков с тишиной в начале и конце : Нет
При вычислениях CRC использовались нулевые сэмплы : Да
Интерфейс : Установленный внешний ASPI-интерфейс

Выходной формат : Пользовательский кодировщик
Выбранный битрейт : 768 kBit/s
Качество : Высокий
Добавление ID3-тэга : Нет
Утилита сжатия : C:\Program Files\Exact Audio Copy\FLAC\FLAC.EXE
Дополнительные параметры : -6 -V -T "ARTIST=%a" -T "TITLE=%t" -T "ALBUM=%g" -T "DATE=%y" -T "TRACKNUMBER=%n" -T "GENRE=%m" -T "COMMENT=%e" %s -o %d


TOC извлечённого CD

Трек | Старт | Длительность | Начальный сектор | Конечный сектор
––––––––––––––––––––––––––––––––––-
1 | 0:00.00 | 1:40.00 | 0 | 7499
2 | 1:40.00 | 2:43.24 | 7500 | 19748
3 | 4:23.24 | 2:37.67 | 19749 | 31590
4 | 7:01.16 | 3:30.72 | 31591 | 47412
5 | 10:32.13 | 1:49.53 | 47413 | 55640
6 | 12:21.66 | 4:40.60 | 55641 | 76700
7 | 17:02.51 | 2:49.04 | 76701 | 89379
8 | 19:51.55 | 2:24.20 | 89380 | 100199
9 | 22:16.00 | 3:11.30 | 100200 | 114554
10 | 25:27.30 | 4:25.31 | 114555 | 134460
11 | 29:52.61 | 1:59.48 | 134461 | 143433
12 | 31:52.34 | 3:07.65 | 143434 | 157523
13 | 35:00.24 | 3:30.33 | 157524 | 173306
14 | 38:30.57 | 5:26.64 | 173307 | 197820
15 | 43:57.46 | 4:14.66 | 197821 | 216936
16 | 48:12.37 | 3:08.53 | 216937 | 231089
17 | 51:21.15 | 1:49.60 | 231090 | 239324
18 | 53:11.00 | 4:24.47 | 239325 | 259171
19 | 57:35.47 | 4:03.72 | 259172 | 277468
20 | 61:39.44 | 4:01.58 | 277469 | 295601


Характеристики диапазона извлечения и сообщения об ошибках

Выбранный диапазон

Имя файла I:\BitComet\Los Straitjackets(flac)\Damas y Caballeros!\Los Straitjackets - Damas y Caballeros!.wav

Пиковый уровень 99.7 %
Качество диапазона 100.0 %
CRC копии 36854579
Копирование… OK

Ошибок не произошло


AccurateRip: сводка

Трек 1 точное извлечение (доверие 2) [09E2C55D]
Трек 2 точное извлечение (доверие 2) [3C8391F1]
Трек 3 точное извлечение (доверие 2) [1D64A8BC]
Трек 4 точное извлечение (доверие 2) [69EEE914]
Трек 5 точное извлечение (доверие 2) [0DFC8B2D]
Трек 6 точное извлечение (доверие 2) [98B24FE8]
Трек 7 точное извлечение (доверие 2) [3206BDCE]
Трек 8 точное извлечение (доверие 2) [7738343E]
Трек 9 точное извлечение (доверие 2) [AEA5D3DA]
Трек 10 точное извлечение (доверие 2) [5A00AF32]
Трек 11 точное извлечение (доверие 2) [8E507FBC]
Трек 12 точное извлечение (доверие 2) [FCF7B741]
Трек 13 точное извлечение (доверие 2) [2856C172]
Трек 14 точное извлечение (доверие 2) [9F6B94EF]
Трек 15 точность не определена (достоверность 5) [5B8D1EE2], AccurateRip вернул [AC29C911]
Трек 16 точное извлечение (доверие 2) [12BBE566]
Трек 17 точное извлечение (доверие 2) [913E49E6]
Трек 18 точное извлечение (доверие 2) [3D2F5BC7]
Трек 19 точное извлечение (доверие 2) [61522FEE]
Трек 20 точное извлечение (доверие 2) [36C12B1F]

19 трек(и) скопированы точно
1 трек(и) не удалось проверить на точность

Некоторые треки не прошли проверку на точность

Конец отчёта




Los Straitjackets - Albums Collection 1995-2014 (16CD) [Re-Up + Upgrade]

Los Straitjackets - Sing Along with Los Straitjackets (2001)
EAC | FLAC | Image (Cue&Log) ~ 285 Mb (incl 5%) | Mp3 (CBR320) ~ 130 Mb (incl 5%) | Scans included
Label: Yep Roc Records | # CD YEP 2028 | Time: 00:33:44

A huge departure for this masked, previously all-instrumental surf quartet, their fifth album is, as indicated by its title, augmented by vocals. But not just any vocals. Eleven out of the 13 tracks boast a different singer (Big Sandy, who also toured with the band in 2001, appears twice) adding just the right touch to the disc's eclectic covers of rockin' soul (los Bravos' "Black Is Black" with the Mavericks' Raul Malo), British Invasion-styled pop ("Bumble Bee" with a rare vocal from Tom Petty guitarist Mike Campbell), good-time roots (Nick Lowe is guest lead bassist on his own "Shake That Rat," one of the disc's two instrumentals), weepy string-laden '60s ballads (Sixpence None the Richer's Leigh Nash gives a perfectly frail reading of Skeeter Davis' "End of the World"), Cramps-style high octane swamp (Reverend Horton Heat toughens up Roy Orbison's "Down the Line"), their usual twisted, twangy, hang-ten surfin' sufari (a husky voiced Dave Alvin sounds perfect on "California Sun"), and Link Wray-styled, reverb-laden scrappy punk (the Trashmen swing through a tight "A Huevo"). At only 34 minutes, it's a little on the short side, but there is a crisp conciseness to the tracks – the majority of which run less than three minutes – that harks back to the days when the perfect 45 rpm single packed in everything it needed. It also sounds like the singers were actually in the studio with the band, rather than overdubbed later, as they seem to feed off los Straitjackets' manic energy. A terrific concept that broadens the group's horizons while staying true to their American garage, rockabilly, and wave-riding roots, this is a most welcome addition to los Straitjackets' existing instrumental catalog, and a floorboard-shaking party disc as well.

Review by Hal Horowitz, Allmusic.com

Tracklist:

01. Black Is Black (with Raul Malo) (03:12)
02. Chica Alborotada (with Big Sandy) (01:55)
03. Treat Her Right (with Mark Lindsay) (02:45)
04. I Ain't The One (with Allison Moorer & Lonesome Bob) (03:01)
05. Down The Line (with The Reverend Horton Heat) (02:13)
06. Rey Criollo (with El Vez) (02:07)
07. California Sun (with Dave Alvin) (02:31)
08. I'll Go Down Swinging (with Exene Cervenka) (02:11)
09. La Suegra (with Big Sandy) (02:26)
10. Bumble Bee (with Mike Campbell) (02:45)
11. Shake That Rat (with Nick Lowe) (02:28)
12. The End Of The World (with Leigh Nash) (03:53)
13. A Huevo (with The Trashmen) (02:10)


Exact Audio Copy V0.99 prebeta 4 from 23. January 2008

Отчёт EAC об извлечении, выполненном 26. ноября 2009, 9:50

Los Straitjackets / Sing Along With Los Straitjackets

Дисковод: PLEXTOR DVDR PX-880SA Adapter: 1 ID: 1

Режим чтения : Достоверность
Использование точного потока : Да
Отключение кэша аудио : Да
Использование указателей C2 : Нет

Коррекция смещения при чтении : 6
Способность читать области Lead-in и Lead-out : Нет
Заполнение пропущенных сэмплов тишиной : Да
Удаление блоков с тишиной в начале и конце : Нет
При вычислениях CRC использовались нулевые сэмплы : Да
Интерфейс : Установленный внешний ASPI-интерфейс

Выходной формат : Пользовательский кодировщик
Выбранный битрейт : 768 kBit/s
Качество : Высокий
Добавление ID3-тэга : Нет
Утилита сжатия : C:\Program Files\Exact Audio Copy\FLAC\FLAC.EXE
Дополнительные параметры : -6 -V -T "ARTIST=%a" -T "TITLE=%t" -T "ALBUM=%g" -T "DATE=%y" -T "TRACKNUMBER=%n" -T "GENRE=%m" -T "COMMENT=%e" %s -o %d


TOC извлечённого CD

Трек | Старт | Длительность | Начальный сектор | Конечный сектор
––––––––––––––––––––––––––––––––––-
1 | 0:00.00 | 3:13.73 | 0 | 14547
2 | 3:13.73 | 1:56.40 | 14548 | 23287
3 | 5:10.38 | 2:47.07 | 23288 | 35819
4 | 7:57.45 | 3:03.45 | 35820 | 49589
5 | 11:01.15 | 2:15.38 | 49590 | 59752
6 | 13:16.53 | 2:08.65 | 59753 | 69417
7 | 15:25.43 | 2:33.11 | 69418 | 80903
8 | 17:58.54 | 2:13.35 | 80904 | 90913
9 | 20:12.14 | 2:28.12 | 90914 | 102025
10 | 22:40.26 | 2:47.14 | 102026 | 114564
11 | 25:27.40 | 2:30.03 | 114565 | 125817
12 | 27:57.43 | 3:54.65 | 125818 | 143432
13 | 31:52.33 | 2:10.72 | 143433 | 153254


Характеристики диапазона извлечения и сообщения об ошибках

Выбранный диапазон

Имя файла I:\BitComet\Los Straitjackets(flac)\Sing Along With Los Straitjackets\Los Straitjackets - Sing Along With Los Straitjackets.wav

Пиковый уровень 100.0 %
Качество диапазона 100.0 %
CRC копии A89A362D
Копирование… OK

Ошибок не произошло


AccurateRip: сводка

Трек 1 точное извлечение (доверие 4) [223F9549]
Трек 2 точное извлечение (доверие 4) [710DFA5C]
Трек 3 точное извлечение (доверие 4) [B9BC2404]
Трек 4 точное извлечение (доверие 4) [C66C63D6]
Трек 5 точное извлечение (доверие 4) [698DEADD]
Трек 6 точное извлечение (доверие 4) [43B9A128]
Трек 7 точное извлечение (доверие 4) [CF3EE8F6]
Трек 8 точное извлечение (доверие 4) [25447DA7]
Трек 9 точное извлечение (доверие 4) [811C3445]
Трек 10 точное извлечение (доверие 3) [8D9C8960]
Трек 11 точное извлечение (доверие 4) [9BA2CE4F]
Трек 12 точное извлечение (доверие 4) [6BA26802]
Трек 13 точное извлечение (доверие 3) [AFCA7B17]

Все треки извлечены точно

Конец отчёта




Los Straitjackets - Albums Collection 1995-2014 (16CD) [Re-Up + Upgrade]

Los Straitjackets - Encyclopedia of Sound Volume 1 (2001)
EAC | FLAC | Image (Cue&Log) ~ 282 Mb | Mp3 (CBR320) ~ 136 Mb
Label: LoveCat Music | # LCM 3669 | Time: 00:39:37 | Scans included

Hard to believe, but being America's leading purveyors of hod-rodded vintage-style instrumental rock isn't the most lucrative career one might choose, so the boys in los Straitjackets are always eager to pick up the right kind of side gig, which is where Encyclopedia of Sound comes in. The CD is a collection of 22 short selections in a variety of classic styles – early instrumental rock, '60s garage rock, blues, country, Tex Mex, and jazz – which the band wrote and recorded specifically to shop around to television and film producers looking for short bits of incidental music. As a result, most of these pieces sound just a bit generic (that's part of the idea), and 17 out of 22 clock in at under two minutes; los Straitjackets fans looking for a solid chunk of fresh listening or beginners wanting to introduce themselves to the group should certainly look elsewhere. But this set certainly shows off the group's versatility, expert chops, and easy mastery of classic styles, and it makes for pleasant enough background listening. If you dig los Straitjackets, Encyclopedia of Sound is a pleasant but hardly an essential purchase, unless you happen to license music for feature films or television shows, in which case "Switchblade Stroll" or "Onion Dip" would sound pretty cool coming out of the car radio while your characters drive down a rain-slick street late at night.

Mark Deming, Allmusic.com

Tracklist:

I. Rock & Roll Rave-Ups

01. Furious (01:35)
02. Road Rage (01:55)
03. Candy Rock (01:38)
04. Kaboom! (02:00)
05. California Fun (01:19)
06. Switchblade Stroll (01:21)

II. Country/Twang

07. Cactus Walk (02:05)
08. Arizona Sunset (02:12)
09. Country Squier (Electric) (01:23)
10. Country Squier (Acoustic) (01:11)

III. Psychedelic/Garage/Sixties

11. Golden Nugget (01:20)
12. Heavy Bag (01:06)
13. Cropdustin (01:32)

IV. Tex Mex

14. Cantina (Electric) (01:58)
15. Cantina (Acoustic) (02:00)
16. Sombrero (01:29)

V. Blues/R&B

17. Onion Dip (03:02)
18. Pot Liquor (01:46)
19. Man from S.W.A.M.P. (02:52)
20. Dipsy Doodle (01:53)

VI. Jazz/Easy Listening

21. Take The 405 (01:33)
22. Fuzzy Nova (02:17)


Exact Audio Copy V1.0 beta 3 from 29. August 2011

Отчёт EAC об извлечении, выполненном 3. октября 2015, 13:15

Los Straitjackets / Encyclopedia of Sound Volume 1

Дисковод: PLEXTOR DVDR PX-880SA Adapter: 1 ID: 0

Режим чтения : Достоверность
Использование точного потока : Да
Отключение кэша аудио : Да
Использование указателей C2 : Нет

Коррекция смещения при чтении : 6
Способность читать области Lead-in и Lead-out : Нет
Заполнение пропущенных сэмплов тишиной : Да
Удаление блоков с тишиной в начале и конце : Нет
При вычислениях CRC использовались нулевые сэмплы : Да
Интерфейс : Установленный внешний ASPI-интерфейс

Выходной формат : Пользовательский кодировщик
Выбранный битрейт : 1024 kBit/s
Качество : Высокий
Добавление ID3-тега : Нет
Утилита сжатия : C:\Program Files\Exact Audio Copy\FLAC\FLAC.EXE
Дополнительные параметры : -8 -V -T "ARTIST=%artist%" -T "ALBUM=%albumtitle%" -T "DATE=%year%" -T "GENRE=%genre%" -T "COMMENT=ripped by izia1956" %source%


TOC извлечённого CD

Трек | Старт | Длительность | Начальный сектор | Конечный сектор
––––––––––––––––––––––––––––––––––-
1 | 0:00.00 | 1:35.57 | 0 | 7181
2 | 1:35.57 | 1:55.48 | 7182 | 15854
3 | 3:31.30 | 1:38.10 | 15855 | 23214
4 | 5:09.40 | 2:00.72 | 23215 | 32286
5 | 7:10.37 | 1:19.60 | 32287 | 38271
6 | 8:30.22 | 1:21.20 | 38272 | 44366
7 | 9:51.42 | 2:05.13 | 44367 | 53754
8 | 11:56.55 | 2:12.10 | 53755 | 63664
9 | 14:08.65 | 1:23.20 | 63665 | 69909
10 | 15:32.10 | 1:11.15 | 69910 | 75249
11 | 16:43.25 | 1:20.07 | 75250 | 81256
12 | 18:03.32 | 1:06.68 | 81257 | 86274
13 | 19:10.25 | 1:32.72 | 86275 | 93246
14 | 20:43.22 | 1:58.48 | 93247 | 102144
15 | 22:41.70 | 2:00.57 | 102145 | 111201
16 | 24:42.52 | 1:29.53 | 111202 | 117929
17 | 26:12.30 | 3:02.65 | 117930 | 131644
18 | 29:15.20 | 1:46.12 | 131645 | 139606
19 | 31:01.32 | 2:52.30 | 139607 | 152536
20 | 33:53.62 | 1:53.05 | 152537 | 161016
21 | 35:46.67 | 1:33.03 | 161017 | 167994
22 | 37:19.70 | 2:17.02 | 167995 | 178271


Характеристики диапазона извлечения и сообщения об ошибках

Выбранный диапазон

Имя файла D:\BitComet\Los Straitjackets(flac)\2004 - Encyclopedia of sound vol 1\Los Straitjackets - Encyclopedia of Sound Volume 1.wav

Пиковый уровень 99.9 %
Скорость извлечения 2.9 X
Качество диапазона 100.0 %
CRC теста 173F15B4
CRC копии 173F15B4
Копирование… OK

Ошибок не произошло


AccurateRip: сводка

Трек 1 отсутствует в базе данных
Трек 2 отсутствует в базе данных
Трек 3 отсутствует в базе данных
Трек 4 отсутствует в базе данных
Трек 5 отсутствует в базе данных
Трек 6 отсутствует в базе данных
Трек 7 отсутствует в базе данных
Трек 8 отсутствует в базе данных
Трек 9 отсутствует в базе данных
Трек 10 отсутствует в базе данных
Трек 11 отсутствует в базе данных
Трек 12 отсутствует в базе данных
Трек 13 отсутствует в базе данных
Трек 14 отсутствует в базе данных
Трек 15 отсутствует в базе данных
Трек 16 отсутствует в базе данных
Трек 17 отсутствует в базе данных
Трек 18 отсутствует в базе данных
Трек 19 отсутствует в базе данных
Трек 20 отсутствует в базе данных
Трек 21 отсутствует в базе данных
Трек 22 отсутствует в базе данных

Ни одного трека нет в базе AccurateRip

Конец отчёта

==== Контрольная сумма отчёта ECDDEE3132E66C049026E6AA19C14E045CFF1D05EF20F99CA754990535F0BF68 ====

foobar2000 1.2 / Dynamic Range Meter 1.1.1
log date: 2016-10-19 20:53:54

––––––––––––––––––––––––––––––––––––––––
Analyzed: Los Straitjackets / Encyclopedia of Sound Volume 1
––––––––––––––––––––––––––––––––––––––––

DR Peak RMS Duration Track
––––––––––––––––––––––––––––––––––––––––
DR9 0.00 dB -10.54 dB 1:36 01-Furious
DR9 -0.50 dB -11.10 dB 1:56 02-Road Rage
DR11 -0.01 dB -11.90 dB 1:38 03-Candy Rock
DR9 -0.50 dB -11.21 dB 2:01 04-Kaboom!
DR9 0.00 dB -11.77 dB 1:20 05-California Fun
DR10 0.00 dB -11.55 dB 1:21 06-Switchblade Stroll
DR9 0.00 dB -11.20 dB 2:05 07-Cactus Walk
DR11 -0.50 dB -12.22 dB 2:12 08-Arizona Sunset
DR9 -0.50 dB -10.65 dB 1:23 09-Country Squier (Electric)
DR10 -0.50 dB -10.85 dB 1:11 10-Country Squier (Acoustic)
DR9 0.00 dB -10.23 dB 1:20 11-Golden Nugget
DR10 0.00 dB -12.19 dB 1:07 12-Heavy Bag
DR12 0.00 dB -13.29 dB 1:33 13-Cropdustin
DR9 0.00 dB -10.18 dB 1:59 14-Cantina (Electric)
DR9 -0.50 dB -10.94 dB 2:01 15-Cantina (Acoustic)
DR11 0.00 dB -12.68 dB 1:30 16-Sombrero
DR12 0.00 dB -13.65 dB 3:03 17-Onion Dip
DR13 0.00 dB -14.86 dB 1:46 18-Pot Liquor
DR11 0.00 dB -12.46 dB 2:52 19-Man from S.W.A.M.P.
DR10 0.00 dB -11.45 dB 1:53 20-Dipsy Doodle
DR10 -0.50 dB -12.26 dB 1:33 21-Take The 405
DR13 0.00 dB -15.52 dB 2:17 22-Fuzzy Nova
––––––––––––––––––––––––––––––––––––––––

Number of tracks: 22
Official DR value: DR10

Samplerate: 44100 Hz
Channels: 2
Bits per sample: 16
Bitrate: 816 kbps
Codec: FLAC
================================================================================




Los Straitjackets - Albums Collection 1995-2014 (16CD) [Re-Up + Upgrade]

Los Straitjackets - 'Tis the Season for Los Straitjackets! (2002)
EAC | FLAC | Image (Cue&Log) ~ 235 Mb (incl 5%) | Mp3 (CBR320) ~ 105 Mb (incl 5%) | Scans included
Label: Yep Roc Records | # YEP 2041 | Time: 00:31:53

If you're looking for someone to help you share the joy and magic of the holiday season, who better than the world's leading masked instrumental surf band? Los Straitjackets don't offer up a whole lot of surprises on 'Tis the Season for los Straitjackets!, but that isn't necessarily a bad thing; Eddie Angel and Danny Amis serve up lots of tasty guitar work, and Pete Curry and Jimmy Lester are one solid rhythm section, just as they've always been, and on these 13 tunes (11 covers and two originals) the lucha libre-obsessed guitar wranglers show off the smarts, humor, and sterling chops that have become their trademark. The "La Bamba"-accented "Feliz Navidad," a version of "God Rest Ye Merry Gentlemen" which channels the spirit of the Chantays, and the Ventures tribute of "Sleigh Ride" are highlights, and while this album will go over best with those who thrive on retro cool, this should send your next Christmas party into a state of dance fever with anyone who appreciates the era of enjoyable AM radio. How's the surf at the North Pole these days, anyway?

Review by Mark Deming, Allmusic.com

Tracklist:

01. Here Comes Santa Claus (02:10)
02. A Marshmallow World (02:05)
03. Feliz Navidad (03:09)
04. Jingle Bell Rock (02:40)
05. Rudolph the Red Nosed Reindeer (02:17)
06. God Rest Ye Merry Gentlemen (02:23)
07. Frosty the Snowman (01:57)
08. Christmas in Las Vegas (02:35)
09. Let it Snow (02:11)
10. Sleigh Ride (02:31)
11. Christmas Weekend (01:52)
12. Little Drummer Boy (02:39)
13. The Christmas Song (03:16)


Exact Audio Copy V0.99 prebeta 4 from 23. January 2008

Отчёт EAC об извлечении, выполненном 26. ноября 2009, 9:30

Los Straitjackets / Tis the Season for Los Straitjackets

Дисковод: PLEXTOR DVDR PX-880SA Adapter: 1 ID: 1

Режим чтения : Достоверность
Использование точного потока : Да
Отключение кэша аудио : Да
Использование указателей C2 : Нет

Коррекция смещения при чтении : 6
Способность читать области Lead-in и Lead-out : Нет
Заполнение пропущенных сэмплов тишиной : Да
Удаление блоков с тишиной в начале и конце : Нет
При вычислениях CRC использовались нулевые сэмплы : Да
Интерфейс : Установленный внешний ASPI-интерфейс

Выходной формат : Пользовательский кодировщик
Выбранный битрейт : 768 kBit/s
Качество : Высокий
Добавление ID3-тэга : Нет
Утилита сжатия : C:\Program Files\Exact Audio Copy\FLAC\FLAC.EXE
Дополнительные параметры : -6 -V -T "ARTIST=%a" -T "TITLE=%t" -T "ALBUM=%g" -T "DATE=%y" -T "TRACKNUMBER=%n" -T "GENRE=%m" -T "COMMENT=%e" %s -o %d


TOC извлечённого CD

Трек | Старт | Длительность | Начальный сектор | Конечный сектор
––––––––––––––––––––––––––––––––––-
1 | 0:00.00 | 2:11.33 | 0 | 9857
2 | 2:11.33 | 2:06.12 | 9858 | 19319
3 | 4:17.45 | 3:10.15 | 19320 | 33584
4 | 7:27.60 | 2:41.39 | 33585 | 45698
5 | 10:09.24 | 2:18.17 | 45699 | 56065
6 | 12:27.41 | 2:23.60 | 56066 | 66850
7 | 14:51.26 | 1:57.44 | 66851 | 75669
8 | 16:48.70 | 2:36.37 | 75670 | 87406
9 | 19:25.32 | 2:12.18 | 87407 | 97324
10 | 21:37.50 | 2:33.73 | 97325 | 108872
11 | 24:11.48 | 1:53.41 | 108873 | 117388
12 | 26:05.14 | 2:40.09 | 117389 | 129397
13 | 28:45.23 | 3:16.40 | 129398 | 144137


Характеристики диапазона извлечения и сообщения об ошибках

Выбранный диапазон

Имя файла I:\BitComet\Los Straitjackets(flac)\Tis the Season for Los Straitjackets\Los Straitjackets - Tis the Season for Los Straitjackets.wav

Пиковый уровень 96.5 %
Качество диапазона 100.0 %
CRC копии 4780F3DF
Копирование… OK

Ошибок не произошло


AccurateRip: сводка

Трек 1 точное извлечение (доверие 5) [AD6A0782]
Трек 2 точное извлечение (доверие 5) [72DA1A8B]
Трек 3 точное извлечение (доверие 5) [62AB3719]
Трек 4 точное извлечение (доверие 5) [71909473]
Трек 5 точное извлечение (доверие 5) [F6AECC7A]
Трек 6 точное извлечение (доверие 5) [173203A6]
Трек 7 точное извлечение (доверие 5) [54EF0EFA]
Трек 8 точное извлечение (доверие 5) [2A05E930]
Трек 9 точное извлечение (доверие 5) [9B663FF9]
Трек 10 точное извлечение (доверие 5) [361BC279]
Трек 11 точное извлечение (доверие 5) [7E51DE31]
Трек 12 точное извлечение (доверие 5) [E70826C2]
Трек 13 точное извлечение (доверие 5) [B341B24E]

Все треки извлечены точно

Конец отчёта




Los Straitjackets - Albums Collection 1995-2014 (16CD) [Re-Up + Upgrade]

Eddy "The Chief" Clearwater featuring Los Straitjackets - Rock'n'Roll City (2003)
EAC | FLAC | Image (Cue&Log) ~ 296 Mb (incl 5%) | Mp3 (CBR320) ~ 114 Mb (incl 5%) | Scans included
Label: Bullseye Blues | # 116 619640-2 | Time: 00:44:09

The association seems unusual at first glance, but Eddy "The Chief" Clearwater's roots rock and blues backed by Los Straitjackets' twangy surf results in a potent combination. Other than the participants' colorful choice of headgear, this joint venture urges Clearwater to his most rocking and uninhibited studio performances, while expanding his stylistic boundaries. Never a straight bluesman, the Chief's Chuck Berry tendencies are well established. But even though he tosses off another in a long line of Berry-esque rockers with a "Johnny B. Goode"-heavy "Hillbilly Blues," this album explores his non-blues roots more thoroughly. The opening cover of "You're Humbuggin' Me" kicks things off with a blast of '50s Little Richard abandon. Elsewhere, he moves into spaghetti Western, reverbed instrumental/rockabilly waters – no doubt provoked by the Straitjackets – on "Monkey Paw." Clearwater also tosses in a few Ray Charles-styled R&B '50s nuggets in "I Love You" and "Before This Song Is Over," both originals that sound like authentic lost gems due partially to Dennis Taylor's tough tenor sax. New Orleans rhythms rule on Clearwater's cover of Fats Domino's "Let the Four Winds Blow," and he hits an easygoing rockabilly vibe on "Midnight Groove," another horn and guitar-driven burner. "Back Down to Earth" also mixes swamp soul with country blues in an intoxicating blend. Closing with "Good Times Are Coming," a six-minute gospel-tinged slow blues with only a lonely organ as accompaniment, brings Clearwater full circle and ends the album on its mellowest note. The guitarist sounds jovial and inspired throughout, trading licks with Los Straitjackets' Eddie Angel and Danny Amis and singing with an upbeat affability that makes it sound as if he's in your living room. With its diverse menu and crackling performances, Rock 'n' Roll City demonstrates that Eddy Clearwater excels at far more than his existing catalog indicates.

Review by Hal Horowitz, Allmusic.com

Tracklist:

01. You're Humbuggin' Me (02:49)
02. Ding Dong Daddy (02:33)
03. Lonesome Town (03:32)
04. Hillbilly Blues (03:49)
05. Monkey Paw (02:35)
06. Back Down to Earth (02:52)
07. Before This Song Is Over (04:00)
08. Old Time Rocker (03:21)
09. Midnight Groove (02:20)
10. I Love You (03:36)
11. Let the Four Winds Blow (03:25)
12. Peggy Sue (02:47)
13. Good Times Are Coming (06:19)


Exact Audio Copy V0.99 prebeta 5 from 4. May 2009

Отчёт EAC об извлечении, выполненном 7. августа 2012, 20:02

Eddy Clearwater and Los Straitjackets / Rock'n'Roll City

Дисковод: PLEXTOR DVDR PX-880SA Adapter: 1 ID: 0

Режим чтения : Достоверность
Использование точного потока : Да
Отключение кэша аудио : Да
Использование указателей C2 : Нет

Коррекция смещения при чтении : 6
Способность читать области Lead-in и Lead-out : Нет
Заполнение пропущенных сэмплов тишиной : Да
Удаление блоков с тишиной в начале и конце : Нет
При вычислениях CRC использовались нулевые сэмплы : Да
Интерфейс : Установленный внешний ASPI-интерфейс

Выходной формат : Пользовательский кодировщик
Выбранный битрейт : 1024 kBit/s
Качество : Высокий
Добавление ID3-тэга : Нет
Утилита сжатия : C:\Program Files\Exact Audio Copy\FLAC\FLAC.EXE
Дополнительные параметры : -6 -V -T "ARTIST=%a" -T "TITLE=%t" -T "ALBUM=%g" -T "DATE=%y" -T "TRACKNUMBER=%n" -T "GENRE=%m" -T "COMMENT=%e" %s -o %d


TOC извлечённого CD

Трек | Старт | Длительность | Начальный сектор | Конечный сектор
––––––––––––––––––––––––––––––––––-
1 | 0:00.00 | 2:49.34 | 0 | 12708
2 | 2:49.34 | 2:34.43 | 12709 | 24301
3 | 5:24.02 | 3:32.17 | 24302 | 40218
4 | 8:56.19 | 3:50.63 | 40219 | 57531
5 | 12:47.07 | 2:36.31 | 57532 | 69262
6 | 15:23.38 | 2:52.05 | 69263 | 82167
7 | 18:15.43 | 4:00.51 | 82168 | 100218
8 | 22:16.19 | 3:22.00 | 100219 | 115368
9 | 25:38.19 | 2:21.15 | 115369 | 125958
10 | 27:59.34 | 3:36.45 | 125959 | 142203
11 | 31:36.04 | 3:25.69 | 142204 | 157647
12 | 35:01.73 | 2:48.04 | 157648 | 170251
13 | 37:50.02 | 6:19.34 | 170252 | 198710


Характеристики диапазона извлечения и сообщения об ошибках

Выбранный диапазон

Имя файла F:\BitComet\Los Straitjackets(flac)\2003 - Rock 'n' Roll City\Eddy Clearwater and Los Straitjackets - Rock'n'Roll City.wav

Пиковый уровень 98.8 %
Качество диапазона 100.0 %
CRC теста 480B6D7F
CRC копии 480B6D7F
Копирование… OK

Ошибок не произошло


AccurateRip: сводка

Трек 1 точное извлечение (доверие 3) [F6DBA9CB]
Трек 2 точное извлечение (доверие 3) [1D95664B]
Трек 3 точное извлечение (доверие 3) [1FE9B32D]
Трек 4 точное извлечение (доверие 3) [4ABD85DF]
Трек 5 точное извлечение (доверие 3) [F0F3C8BD]
Трек 6 точное извлечение (доверие 3) [B1A7FC77]
Трек 7 точное извлечение (доверие 3) [029813A6]
Трек 8 точное извлечение (доверие 3) [D0F68A86]
Трек 9 точное извлечение (доверие 3) [5474BBDB]
Трек 10 точное извлечение (доверие 3) [D0F4C4B2]
Трек 11 точное извлечение (доверие 3) [919882C2]
Трек 12 точное извлечение (доверие 3) [5502D3CE]
Трек 13 точное извлечение (доверие 3) [6C06ED97]

Все треки извлечены точно

Конец отчёта




Los Straitjackets - Albums Collection 1995-2014 (16CD) [Re-Up + Upgrade]

Los Straitjackets - Supersonic Guitars in 3-D (2003)
EAC | FLAC | Image (Cue&Log) ~ 246 Mb (incl 5%) | Mp3 (CBR320) ~ 104 Mb (incl 5%) | Scans included
Label: Yep Roc Records | # YEP 2047 | Time: 00:32:50

Following a Christmas album and a standards-laden outing (with some impressively diverse guest vocalists), los Straitjackets return to their hallmark surf-punk instrumental core with Supersonic Guitars in 3-D. Producer Mark Neill coaxes a bit more grit and grime out of the quartet for these sessions, and the band's feet are firmly planted once again in their accustomed roles. Even if the themes and riffs are all but played-out 1960s rock and roll cliches, the band never sounds stiff or bored with themselves. Still, for all the swagger and swing, the funky, 30-second-long, tremolo-laced tag at the end of "Can You Dig It?" is by far the most interesting thing happening here. This group has experimented with interesting rhythms in the past, and it's an avenue that deserves further exploration. Bitchin' idea to include 3-D cover art with glasses inside, though.

Review by John Duffy, Allmusic.com

Tracklist:

01. Squid (01:47)
02. DiPinto Twist (01:51)
03. Time Bomb (02:34)
04. Can You Dig It? (02:46)
05. San Diego Shutdown (02:21)
06. Isn't Love Grand? (02:15)
07. Giggle Water (02:18)
08. Midnight In Salerno (02:55)
09. Beach Bag (02:47)
10. Jungleaya (02:09)
11. Galaxy Drive (02:10)
12. Tarantula (02:38)
13. Dreamland (03:11)


Exact Audio Copy V0.99 prebeta 4 from 23. January 2008

Отчёт EAC об извлечении, выполненном 26. ноября 2009, 14:48

Los Straitjackets / Supersonic Guitars in 3-D

Дисковод: PLEXTOR DVDR PX-880SA Adapter: 1 ID: 1

Режим чтения : Достоверность
Использование точного потока : Да
Отключение кэша аудио : Да
Использование указателей C2 : Нет

Коррекция смещения при чтении : 6
Способность читать области Lead-in и Lead-out : Нет
Заполнение пропущенных сэмплов тишиной : Да
Удаление блоков с тишиной в начале и конце : Нет
При вычислениях CRC использовались нулевые сэмплы : Да
Интерфейс : Установленный внешний ASPI-интерфейс

Выходной формат : Пользовательский кодировщик
Выбранный битрейт : 768 kBit/s
Качество : Высокий
Добавление ID3-тэга : Нет
Утилита сжатия : C:\Program Files\Exact Audio Copy\FLAC\FLAC.EXE
Дополнительные параметры : -6 -V -T "ARTIST=%a" -T "TITLE=%t" -T "ALBUM=%g" -T "DATE=%y" -T "TRACKNUMBER=%n" -T "GENRE=%m" -T "COMMENT=%e" %s -o %d


TOC извлечённого CD

Трек | Старт | Длительность | Начальный сектор | Конечный сектор
––––––––––––––––––––––––––––––––––-
1 | 0:00.00 | 1:48.43 | 0 | 8142
2 | 1:48.43 | 1:53.73 | 8143 | 16690
3 | 3:42.41 | 2:35.08 | 16691 | 28323
4 | 6:17.49 | 3:38.28 | 28324 | 44701
5 | 9:56.02 | 2:22.42 | 44702 | 55393
6 | 12:18.44 | 2:16.05 | 55394 | 65598
7 | 14:34.49 | 2:18.62 | 65599 | 76010
8 | 16:53.36 | 2:56.00 | 76011 | 89210
9 | 19:49.36 | 2:47.62 | 89211 | 101797
10 | 22:37.23 | 2:10.65 | 101798 | 111612
11 | 24:48.13 | 2:11.20 | 111613 | 121457
12 | 26:59.33 | 2:39.04 | 121458 | 133386
13 | 29:38.37 | 3:11.38 | 133387 | 147749


Характеристики диапазона извлечения и сообщения об ошибках

Выбранный диапазон

Имя файла I:\BitComet\Los Straitjackets(flac)\Supersonic Guitars in 3-D\Los Straitjackets - Supersonic Guitars in 3-D.wav

Пиковый уровень 100.0 %
Качество диапазона 100.0 %
CRC копии B0408943
Копирование… OK

Ошибок не произошло


AccurateRip: сводка

Трек 1 точное извлечение (доверие 3) [D852CE44]
Трек 2 точное извлечение (доверие 3) [BD6DA7B9]
Трек 3 точное извлечение (доверие 3) [19C68EFB]
Трек 4 точное извлечение (доверие 3) [2D4BBD15]
Трек 5 точное извлечение (доверие 3) [7480F942]
Трек 6 точное извлечение (доверие 3) [FC4CD02D]
Трек 7 точное извлечение (доверие 3) [3905E9FA]
Трек 8 точное извлечение (доверие 3) [753CAC5A]
Трек 9 точное извлечение (доверие 3) [C91E4FBC]
Трек 10 точное извлечение (доверие 3) [F5C0A861]
Трек 11 точное извлечение (доверие 3) [8D9A956A]
Трек 12 точное извлечение (доверие 3) [8DB01A0C]
Трек 13 точное извлечение (доверие 3) [7416A61D]

Все треки извлечены точно

Конец отчёта




Los Straitjackets - Albums Collection 1995-2014 (16CD) [Re-Up + Upgrade]

Los Straitjackets - Play Favorites (2004)
EAC | FLAC | Image (Cue&Log) ~ 325 Mb (incl 5%) | Mp3 (CBR320) ~ 133 Mb (incl 5%) | Scans included
Label: Yep Roc Records | # None | Time: 00:41:12


Released on Yep Roc in 2004, Play Favorites is a collection of cover songs. While primarily an instrumental surf CD, Los Straitjackets interpret a wide variety of material, including Bim Bam Baby made popular by Frank Sinatra, Joan Jett's Bad Reputation and the standard Moon River. Originally sold to fans at concert venue and not known to all fans as part of their catalog, the CD remains available online and through Yep Roc.

Despite the lack of original material, Play Favorites satisfies both surf aficionados with tasty covers of classics like Telstar, Out of Limits, Perfidia and live favorite Jack the Ripper, while adding amusing takes on standards and straight rock along with an obligatory cover of a 60's hit (Elvis' Girl of my Best Friend) in Spanish. Blending elements of Rock en Espanol and Velvet Touch, this release serves as a bridge to Rock en Espanol.

Guest vocalist Deke Dickerson makes his Los Straitjackets debut.

Review by surflover, Amazon.com

Tracklist:

01. Out Of Limits (02:26)
02. Our Favorite Martian (02:38)
03. Moon River (03:12)
04. Bim Bam Baby (01:57)
05. A Town Without Pity (02:54)
06. Jack The Ripper (03:16)
07. La Novia de mi Major Amigo (Girl Of My Best Friend) (03:55)
08. The Rise And Fall Of Flingel Bunt (02:45)
09. I Thought It Over (02:33)
10. Telstar (02:58)
11. King Of The Surf (02:27)
12. Perfidia (02:10)
13. Bad Reputation (02:25)
14. Theme From Magnificent Seven (02:34)
15. Last Date (02:38)


Exact Audio Copy V0.99 prebeta 4 from 23. January 2008

Отчёт EAC об извлечении, выполненном 4. мая 2009, 19:09

Los Straitjackets / Play Favorites

Дисковод: PLEXTOR DVDR PX-806SA Adapter: 1 ID: 1

Режим чтения : Достоверность
Использование точного потока : Да
Отключение кэша аудио : Да
Использование указателей C2 : Нет

Коррекция смещения при чтении : 6
Способность читать области Lead-in и Lead-out : Нет
Заполнение пропущенных сэмплов тишиной : Да
Удаление блоков с тишиной в начале и конце : Нет
При вычислениях CRC использовались нулевые сэмплы : Да
Интерфейс : Установленный внешний ASPI-интерфейс

Выходной формат : Пользовательский кодировщик
Выбранный битрейт : 1024 kBit/s
Качество : Высокий
Добавление ID3-тэга : Нет
Утилита сжатия : C:\Program Files\Exact Audio Copy\FLAC\FLAC.EXE
Дополнительные параметры : -6 -V -T "ARTIST=%a" -T "TITLE=%t" -T "ALBUM=%g" -T "DATE=%y" -T "TRACKNUMBER=%n" -T "GENRE=%m" -T "COMMENT=%e" %s -o %d


TOC извлечённого CD

Трек | Старт | Длительность | Начальный сектор | Конечный сектор
––––––––––––––––––––––––––––––––––-
1 | 0:00.00 | 2:27.56 | 0 | 11080
2 | 2:27.56 | 2:38.72 | 11081 | 23002
3 | 5:06.53 | 3:13.09 | 23003 | 37486
4 | 8:19.62 | 1:59.16 | 37487 | 46427
5 | 10:19.03 | 2:57.14 | 46428 | 59716
6 | 13:16.17 | 3:17.36 | 59717 | 74527
7 | 16:33.53 | 3:56.16 | 74528 | 92243
8 | 20:29.69 | 2:46.01 | 92244 | 104694
9 | 23:15.70 | 2:34.66 | 104695 | 116310
10 | 25:50.61 | 2:59.56 | 116311 | 129791
11 | 28:50.42 | 2:28.08 | 129792 | 140899
12 | 31:18.50 | 2:11.29 | 140900 | 150753
13 | 33:30.04 | 2:26.71 | 150754 | 161774
14 | 35:57.00 | 2:37.19 | 161775 | 173568
15 | 38:34.19 | 2:38.31 | 173569 | 185449


Характеристики диапазона извлечения и сообщения об ошибках

Выбранный диапазон

Имя файла I:\BitComet\Los Straitjackets - Play Favorites\Los Straitjackets - Play Favorites.wav

Пиковый уровень 100.0 %
Качество диапазона 100.0 %
CRC копии A90B216C
Копирование… OK

Ошибок не произошло

Конец отчёта




Los Straitjackets - Albums Collection 1995-2014 (16CD) [Re-Up + Upgrade]

Los Straitjackets with the world famous Pontani Sisters and Kaiser George - Twist Party!!! (2007)
EAC | FLAC | Image (Cue&Log) ~ 246 Mb (incl 5%) | Mp3 (CBR320) ~ 102 Mb (incl 5%) | Scans included
Label: Yep Roc Records | # YEP 2119 | Time: 00:36:10

A slight concept, even by Los Straitjackets' standards, the masked men from Nashville time travel back to the swinging '60s and land in the middle of a suburban twist party. Special guest Kaiser George Miller handles honking sax and vocals on a set of 16 dance-ready tracks that fly by in a little over a half-hour. It's fun aplenty, but like that tasty Chinese food, you'll forget about it an hour after the disc ends. A few covers ("Domino Twist" originally recorded by, who else, Fats Domino and Joey Dee & the Starliters' "Peppermint Twist") shimmy and shake next to 14 similar sounding slabs of hip-swiveling, foot tapping twist music. It's a blast from the past for those who remember the days of hula hoops and lava lamps, or Austin Powers fans, and a kick while it lasts. Even at the abbreviated playing time, the band runs short of ideas, tapping into "Isn't Love Grand," a very non-twisty British Invasion/Merseybeat styled ballad circa Gerry & the Pacemakers. "All Back to Drac's" brings the group's beloved surf music to the table and "Mad Scientwist" nails the '60s instrumental vibe right down to sound effects and sax. A deluxe edition adds an hour-long DVD of the three Pontani Sisters (a burlesque troupe who appear on the cover but are not on the audio disc), decked out in their best bikinis, wigs and white go-go boots teaching us how to do a few of the album's dances and starring in a few intentionally cheesy videos. Like the album, it'll provide a few chuckles the first time around but it's doubtful that even fans of Los Straitjackets' shtick will return for a second helping.

Review by Hal Horowitz, Allmusic.com

Tracklist:

01. Twist Party (01:47)
02. Twistin' Gorrilla (02:08)
03. Hypno-Twist (02:25)
04. Twistin' Out In Space (02:21)
05. Kitty Kat (02:24)
06. Footstomp! (02:06)
07. Twist 'n' Grind (02:13)
08. Isn't Love Grand (02:26)
09. On Tap (02:15)
10. Do The Daddy-O (02:49)
11. Domino Twist (02:20)
12. The Mad Scientwist (01:40)
13. Chocolate Shake (01:59)
14. Twistin' In The Rain (02:36)
15. All Back To Drac's (02:17)
16. Peppermint Twist (02:17)


Exact Audio Copy V0.99 prebeta 4 from 23. January 2008

Отчёт EAC об извлечении, выполненном 26. ноября 2009, 10:06

Los Straitjackets / Twist Party

Дисковод: PLEXTOR DVDR PX-880SA Adapter: 1 ID: 1

Режим чтения : Достоверность
Использование точного потока : Да
Отключение кэша аудио : Да
Использование указателей C2 : Нет

Коррекция смещения при чтении : 6
Способность читать области Lead-in и Lead-out : Нет
Заполнение пропущенных сэмплов тишиной : Да
Удаление блоков с тишиной в начале и конце : Нет
При вычислениях CRC использовались нулевые сэмплы : Да
Интерфейс : Установленный внешний ASPI-интерфейс

Выходной формат : Пользовательский кодировщик
Выбранный битрейт : 768 kBit/s
Качество : Высокий
Добавление ID3-тэга : Нет
Утилита сжатия : C:\Program Files\Exact Audio Copy\FLAC\FLAC.EXE
Дополнительные параметры : -6 -V -T "ARTIST=%a" -T "TITLE=%t" -T "ALBUM=%g" -T "DATE=%y" -T "TRACKNUMBER=%n" -T "GENRE=%m" -T "COMMENT=%e" %s -o %d


TOC извлечённого CD

Трек | Старт | Длительность | Начальный сектор | Конечный сектор
––––––––––––––––––––––––––––––––––-
1 | 0:00.00 | 1:47.22 | 0 | 8046
2 | 1:47.22 | 2:08.21 | 8047 | 17667
3 | 3:55.43 | 2:25.34 | 17668 | 28576
4 | 6:21.02 | 2:21.63 | 28577 | 39214
5 | 8:42.65 | 2:24.37 | 39215 | 50051
6 | 11:07.27 | 2:06.57 | 50052 | 59558
7 | 13:14.09 | 2:13.42 | 59559 | 69575
8 | 15:27.51 | 2:26.13 | 69576 | 80538
9 | 17:53.64 | 2:15.73 | 80539 | 90736
10 | 20:09.62 | 2:49.01 | 90737 | 103412
11 | 22:58.63 | 2:20.25 | 103413 | 113937
12 | 25:19.13 | 1:40.14 | 113938 | 121451
13 | 26:59.27 | 1:59.50 | 121452 | 130426
14 | 28:59.02 | 2:36.48 | 130427 | 142174
15 | 31:35.50 | 2:17.29 | 142175 | 152478
16 | 33:53.04 | 2:17.44 | 152479 | 162797


Характеристики диапазона извлечения и сообщения об ошибках

Выбранный диапазон

Имя файла I:\BitComet\Los Straitjackets(flac)\Twist Party\Los Straitjackets - Twist Party.wav

Пиковый уровень 97.7 %
Качество диапазона 100.0 %
CRC копии 01EE47B3
Копирование… OK

Ошибок не произошло


AccurateRip: сводка

Трек 1 точное извлечение (доверие 3) [F7CA9790]
Трек 2 точное извлечение (доверие 3) [2433F08C]
Трек 3 точное извлечение (доверие 3) [FE5DFE12]
Трек 4 точное извлечение (доверие 3) [8FEBA01F]
Трек 5 точное извлечение (доверие 3) [2FCB4F03]
Трек 6 точное извлечение (доверие 3) [26FE2DE4]
Трек 7 точное извлечение (доверие 3) [CA9CEEE4]
Трек 8 точное извлечение (доверие 3) [1DEDDF25]
Трек 9 точное извлечение (доверие 3) [97145156]
Трек 10 точное извлечение (доверие 3) [FDC0A56F]
Трек 11 точное извлечение (доверие 3) [2D59F933]
Трек 12 точное извлечение (доверие 3) [27AF0990]
Трек 13 точное извлечение (доверие 3) [CF023038]
Трек 14 точное извлечение (доверие 3) [B86152D8]
Трек 15 точное извлечение (доверие 3) [D8DF9D0A]
Трек 16 точное извлечение (доверие 3) [ECABF8A1]

Все треки извлечены точно

Конец отчёта




Los Straitjackets - Albums Collection 1995-2014 (16CD) [Re-Up + Upgrade]

Los Straitjackets - Rock en Español, Vol. 1 (2007)
EAC | FLAC | Image (Cue&Log) ~ 296 Mb (incl 5%) | Mp3 (CBR320) ~ 131 Mb (incl 5%) | Scans included
Label: Yep Roc Records | # YEP 2135 | Time: 00:41:08

Nashville-based instrumental rock combo Los Straitjackets have been proving for years that rock & roll is a truly universal language by doing away with vocals, but for this album the masked guitar manglers have decided to focus on a more specific tongue – namely Spanish. For Rock en Español, Vol. 1, Los Straitjackets have recruited three talented friends to perform a set of rock & roll classics in Spanish – Cesar Rosas of Los Lobos, Big Sandy of retro-country kings Big Sandy & His Fly-Rite Boys, and Little Willie G., lead singer with legendary East L.A. soul-rockers Thee Midnighters. While most folks will be familiar with these tunes in their English-language originals, many of the versions that appear on this album were taken from Spanish rewrites recorded by in the '60s by Mexican teen groups such as Los Teen Tops, Los Locos del Ritmo and Los Rebeldes del Rock. Sometimes things change a little bit in translation, as "Hang On Sloopy" gets turned into a lover's plea to a gal named Lupe, "Dizzy Miss Lizzy" is transformed into "El Microscopico Bikini" (speaking of another universal language), and "Wild Thing" becomes "Loco Te Patina el Coso." While this all might sound like a goof to some folks, Los Straitjackets play these tunes with their usual mixture of chops, fire and effortless swing (and guitarists Eddie Angel and Danny Amis are in great form on these sessions), while their special guests really deliver the goods. The tough but supple voice Cesar Rosas has been putting to such great use with Los Lobos over the years gets another worthy platform here (he also produced the album), while Big Sandy (who cut a great album of classic Low Rider R&B in 1998 called Dedicated to You) gets to show off the passionate range of his voice on "De Dia y de Nocha" (aka the Kinks' "All Day and All of the Night") and "Dame Una Seña" (aka Brenton Woods' "Gimmie Little Sign"), and Little Willie G. steals the show with a heart-tugging version of Arthur Alexander's "Ana." And Los Straitjackets do throw in one token instrumental, a cookin' cover of Thee Midnighters' "Whittier Boulevard." Rock en Español, Vol. 1 is a fine tribute to some of the less commonly explored aspects of rock & roll's Latin roots, and it's great stuff for either listening or dancing.

Review by Mark Deming, Allmusic.com

Tracklist:

01. De Dia Y De Noche (All Day and All of the Night) (02:20)
02. Dejenme Llorar (02:41)
03. Whittier Boulevard (02:43)
04. Ana (Anna) (03:02)
05. El Microscopico Bikini (Dizzy Miss Lizzy) (02:51)
06. Dame Una Seсa (Gimme Little Sign) (02:38)
07. La Hiedra Venenosa (Poison Ivy) (03:12)
08. Calor (Slow Down) (02:52)
09. Hey Lupe (Hang On Sloopy) (03:19)
10. Lagrimas Solitarias (Lonely Teardrops) (02:49)
11. Popotitos (Bony Maronie) (03:07)
12. Magia Blanca (Devil Woman) (03:37)
13. Loco Te Patina El Coco (Wild Thing) (02:43)
14. Tu Te Vas (You'll Lose a Good Thing) (03:03)


Exact Audio Copy V0.99 prebeta 4 from 23. January 2008

Отчёт EAC об извлечении, выполненном 26. ноября 2009, 8:40

Los StraitJackets / Rock en Espanol vol One

Дисковод: PLEXTOR DVDR PX-880SA Adapter: 1 ID: 1

Режим чтения : Достоверность
Использование точного потока : Да
Отключение кэша аудио : Да
Использование указателей C2 : Нет

Коррекция смещения при чтении : 6
Способность читать области Lead-in и Lead-out : Нет
Заполнение пропущенных сэмплов тишиной : Да
Удаление блоков с тишиной в начале и конце : Нет
При вычислениях CRC использовались нулевые сэмплы : Да
Интерфейс : Установленный внешний ASPI-интерфейс

Выходной формат : Пользовательский кодировщик
Выбранный битрейт : 768 kBit/s
Качество : Высокий
Добавление ID3-тэга : Нет
Утилита сжатия : C:\Program Files\Exact Audio Copy\FLAC\FLAC.EXE
Дополнительные параметры : -6 -V -T "ARTIST=%a" -T "TITLE=%t" -T "ALBUM=%g" -T "DATE=%y" -T "TRACKNUMBER=%n" -T "GENRE=%m" -T "COMMENT=%e" %s -o %d


TOC извлечённого CD

Трек | Старт | Длительность | Начальный сектор | Конечный сектор
––––––––––––––––––––––––––––––––––-
1 | 0:00.00 | 2:20.27 | 0 | 10526
2 | 2:20.27 | 2:42.65 | 10527 | 22741
3 | 5:03.17 | 2:45.13 | 22742 | 35129
4 | 7:48.30 | 3:03.15 | 35130 | 48869
5 | 10:51.45 | 2:51.07 | 48870 | 61701
6 | 13:42.52 | 2:39.43 | 61702 | 73669
7 | 16:22.20 | 3:12.20 | 73670 | 88089
8 | 19:34.40 | 2:52.55 | 88090 | 101044
9 | 22:27.20 | 3:19.20 | 101045 | 115989
10 | 25:46.40 | 2:49.17 | 115990 | 128681
11 | 28:35.57 | 3:08.35 | 128682 | 142816
12 | 31:44.17 | 3:37.15 | 142817 | 159106
13 | 35:21.32 | 2:43.50 | 159107 | 171381
14 | 38:05.07 | 3:03.08 | 171382 | 185114


Характеристики диапазона извлечения и сообщения об ошибках

Выбранный диапазон

Имя файла I:\BitComet\Los Straitjackets(flac)\Rock en Espanol vol One\Los StraitJackets - Rock en Espanol vol One.wav

Пиковый уровень 97.7 %
Качество диапазона 100.0 %
CRC копии 5F82919C
Копирование… OK

Ошибок не произошло


AccurateRip: сводка

Трек 1 точное извлечение (доверие 4) [3A6C0316]
Трек 2 точное извлечение (доверие 4) [47C4CD8C]
Трек 3 точное извлечение (доверие 4) [40938DA0]
Трек 4 точное извлечение (доверие 4) [471242F4]
Трек 5 точное извлечение (доверие 4) [054969CC]
Трек 6 точное извлечение (доверие 4) [5142F6C0]
Трек 7 точное извлечение (доверие 4) [F4F4C544]
Трек 8 точное извлечение (доверие 4) [4E282365]
Трек 9 точное извлечение (доверие 4) [68F44AB9]
Трек 10 точное извлечение (доверие 4) [8A6C2DC4]
Трек 11 точное извлечение (доверие 4) [BA0765D3]
Трек 12 точное извлечение (доверие 4) [1AD18327]
Трек 13 точное извлечение (доверие 4) [6E095CD7]
Трек 14 точное извлечение (доверие 4) [61F02ACA]

Все треки извлечены точно

Конец отчёта




Los Straitjackets - Albums Collection 1995-2014 (16CD) [Re-Up + Upgrade]

Los Straitjackets - The Further Adventures of Los Straitjackets (2009)
EAC | FLAC | Image (Cue&Log) ~ 271 Mb (incl 5%) | Mp3 (CBR320) ~ 139 Mb (incl 5%) | Scans included
Label: Yep Roc Records | # YEP 2165 | Time: 00:30:35

It's back to basics as everyone's favorite Mexican wrestling mask-wearing, Chuck Taylor-clad, surf and garage instrumental rock band ditches the guest vocals (in English and Spanish), occasional horns (save for the honking sax on one track), and '60s dance moves to concentrate on what it does best. The baker's dozen songs zip by in a half hour, and while there is little that any Los Straitjackets fan hasn't heard before, the quartet chugs through its paces with requisite retro energy, conjuring up the ghosts of the Ventures, Dick Dale, Link Wray, and – name your favorite '60s twangy instrumental combo here – along with writing new wordless classics for its set list. The sound is somewhat rawer and slightly more punk-influenced, especially noticeable on the "Lust for Life" riff powering "Teen Beast." At nearly four minutes, that is the disc's longest track by a wide margin, as most get to the finish line in under three and a handful even make it before the two-minute buzzer. "Sasquatch" injects some patented Who chords before taking off on a boogie train, and "Nocturnal Twist" is more of the same hip-swiveling clean guitar rock the band has trafficked in since its 1995 debut. The thick reverb on "Mercury" could be the shady soundtrack to an old late-'50s black-and-white noir gumshoe flick. A few fuzz lines muss up the finger-snapping vibe on "Blowout!," not to be outdone by "Minority Report"'s guitar that seems like it was recorded underwater, a clever change-of-pace effect that isn't overdone. For the most part, though, these songs would fit just fine on many of the foursome's previous releases, but that doesn't make this any less eye-opening for newbies first getting on board Los Straitjackets' grimy surfboard. Older enthusiastic followers will enjoy the fresh tunes, typically classy delivery, and genre-bending licks, yet moderate fans won't find enough revelatory here to make this release stand out in Los Straitjackets' catalog of similarly rocking fare.

Review by Hal Horowitz, Allmusic.com

Tracklist:

01. Cal-Speed (02:43)
02. Challendger 64 (02:32)
03. Blowout (02:11)
04. Fortune Cookie (02:29)
05. Minority Report (02:15)
06. Teen Beast (03:43)
07. Catalina (02:24)
08. Sasquatch (02:06)
09. Nocturnal Twist (02:22)
10. Tubby (01:39)
11. The Wild Mouse (01:44)
12. Mercury (02:27)
13. Kapt'n Krunch (01:53)


Exact Audio Copy V0.99 prebeta 4 from 23. January 2008

Отчёт EAC об извлечении, выполненном 26. ноября 2009, 8:09

Los Straitjackets / The Further Adventures of Los Straitjackets

Дисковод: PLEXTOR DVDR PX-880SA Adapter: 1 ID: 1

Режим чтения : Достоверность
Использование точного потока : Да
Отключение кэша аудио : Да
Использование указателей C2 : Нет

Коррекция смещения при чтении : 6
Способность читать области Lead-in и Lead-out : Нет
Заполнение пропущенных сэмплов тишиной : Да
Удаление блоков с тишиной в начале и конце : Нет
При вычислениях CRC использовались нулевые сэмплы : Да
Интерфейс : Установленный внешний ASPI-интерфейс

Выходной формат : Пользовательский кодировщик
Выбранный битрейт : 768 kBit/s
Качество : Высокий
Добавление ID3-тэга : Нет
Утилита сжатия : C:\Program Files\Exact Audio Copy\FLAC\FLAC.EXE
Дополнительные параметры : -6 -V -T "ARTIST=%a" -T "TITLE=%t" -T "ALBUM=%g" -T "DATE=%y" -T "TRACKNUMBER=%n" -T "GENRE=%m" -T "COMMENT=%e" %s -o %d


TOC извлечённого CD

Трек | Старт | Длительность | Начальный сектор | Конечный сектор
––––––––––––––––––––––––––––––––––-
1 | 0:00.00 | 2:43.44 | 0 | 12268
2 | 2:43.44 | 2:32.38 | 12269 | 23706
3 | 5:16.07 | 2:11.66 | 23707 | 33597
4 | 7:27.73 | 2:29.42 | 33598 | 44814
5 | 9:57.40 | 2:15.28 | 44815 | 54967
6 | 12:12.68 | 3:43.20 | 54968 | 71712
7 | 15:56.13 | 2:24.71 | 71713 | 82583
8 | 18:21.09 | 2:06.23 | 82584 | 92056
9 | 20:27.32 | 2:22.63 | 92057 | 102769
10 | 22:50.20 | 1:39.34 | 102770 | 110228
11 | 24:29.54 | 1:44.20 | 110229 | 118048
12 | 26:13.74 | 2:27.37 | 118049 | 129110
13 | 28:41.36 | 1:53.39 | 129111 | 137624


Характеристики диапазона извлечения и сообщения об ошибках

Выбранный диапазон

Имя файла I:\BitComet\Los Straitjackets(flac)\The Further Adventures of Los Straitjackets\Los Straitjackets - The Further Adventures of Los Straitjackets.wav

Пиковый уровень 97.3 %
Качество диапазона 99.9 %
CRC копии DDD797C0
Копирование… OK

Ошибок не произошло


AccurateRip: сводка

Трек 1 нет в базе данных
Трек 2 нет в базе данных
Трек 3 нет в базе данных
Трек 4 нет в базе данных
Трек 5 нет в базе данных
Трек 6 нет в базе данных
Трек 7 нет в базе данных
Трек 8 нет в базе данных
Трек 9 нет в базе данных
Трек 10 нет в базе данных
Трек 11 нет в базе данных
Трек 12 нет в базе данных
Трек 13 нет в базе данных

Ни одного трека нет в базе AccurateRip

Конец отчёта




Los Straitjackets - Albums Collection 1995-2014 (16CD) [Re-Up + Upgrade]

Los Straitjackets - Yuletide Beat (2009)
EAC | FLAC | Image (Cue&Log) ~ 180 Mb (incl 5%) | Mp3 (CBR320) ~ 70 Mb (incl 5%) | Scans included
Label: Yep Roc Records | # 0525 | Time: 00:24:52

This is Los Straitjackets’ second holiday album, following 2002′s ‘Tis the Season for Los Straitjackets, and judging by the results, the surf rock band can crank out satisfying carols until they exhaust the canon. As the Ventures and Santo and Johnny proved, Christmas songs are awfully adaptable to surf rock beat; in this case, Los Straitjackets one-up their forerunners by giving everything a post-modern twist. Not only are these carols updated to the rock ‘n’ roll era, but their done in a way that refers to other rock classics. ”O Come All Ye Faithful” near-quotes “Apache” and “Telstar,” “Deck the Halls” adds a bit of “I Fought the Law,” and “We Three Kings” merges with Dick Dale’s “Pipeline.”

As smart as the album is, it’s not brainy nor overly self-conscious. If you don’t recognize the references, Yuletide Beat still delivers straight-ahead holiday rock ‘n’ roll.

Review by Alex Rawls, Offbeat.com

Tracklist:

01. Deck the Halls (01:58)
02. We Three Kings (02:10)
03. Que Verdes Son (02:37)
04. Joy to the World (02:17)
05. Close to Christmas (The First Noel) (02:12)
06. Silent Night Rock (02:30)
07. Jingle Bells (02:29)
08. O Come All Ye Faithful (02:32)
09. Groovy Old Saint Nick (03:38)
10. Soul'd Lang Syne (02:21)


Exact Audio Copy V0.99 prebeta 4 from 23. January 2008

Отчёт EAC об извлечении, выполненном 26. ноября 2009, 7:32

Los Straitjackets / Yuletide Beat

Дисковод: PLEXTOR DVDR PX-880SA Adapter: 1 ID: 1

Режим чтения : Достоверность
Использование точного потока : Да
Отключение кэша аудио : Да
Использование указателей C2 : Нет

Коррекция смещения при чтении : 6
Способность читать области Lead-in и Lead-out : Нет
Заполнение пропущенных сэмплов тишиной : Да
Удаление блоков с тишиной в начале и конце : Нет
При вычислениях CRC использовались нулевые сэмплы : Да
Интерфейс : Установленный внешний ASPI-интерфейс

Выходной формат : Пользовательский кодировщик
Выбранный битрейт : 768 kBit/s
Качество : Высокий
Добавление ID3-тэга : Нет
Утилита сжатия : C:\Program Files\Exact Audio Copy\FLAC\FLAC.EXE
Дополнительные параметры : -6 -V -T "ARTIST=%a" -T "TITLE=%t" -T "ALBUM=%g" -T "DATE=%y" -T "TRACKNUMBER=%n" -T "GENRE=%m" -T "COMMENT=%e" %s -o %d


TOC извлечённого CD

Трек | Старт | Длительность | Начальный сектор | Конечный сектор
––––––––––––––––––––––––––––––––––-
1 | 0:00.00 | 1:58.34 | 0 | 8883
2 | 1:58.34 | 2:10.21 | 8884 | 18654
3 | 4:08.55 | 2:37.65 | 18655 | 30494
4 | 6:46.45 | 2:17.01 | 30495 | 40770
5 | 9:03.46 | 2:14.08 | 40771 | 50828
6 | 11:17.54 | 2:31.36 | 50829 | 62189
7 | 13:49.15 | 2:29.06 | 62190 | 73370
8 | 16:18.21 | 2:33.40 | 73371 | 84885
9 | 18:51.61 | 3:38.62 | 84886 | 101297
10 | 22:30.48 | 2:21.67 | 101298 | 111939


Характеристики диапазона извлечения и сообщения об ошибках

Выбранный диапазон

Имя файла I:\BitComet\Los Straitjackets(flac)\Yuletide Beat\Los Straitjackets - Yuletide Beat.wav

Пиковый уровень 96.2 %
Качество диапазона 100.0 %
CRC копии D433BC05
Копирование… OK

Ошибок не произошло


AccurateRip: сводка

Трек 1 нет в базе данных
Трек 2 нет в базе данных
Трек 3 нет в базе данных
Трек 4 нет в базе данных
Трек 5 нет в базе данных
Трек 6 нет в базе данных
Трек 7 нет в базе данных
Трек 8 нет в базе данных
Трек 9 нет в базе данных
Трек 10 нет в базе данных

Ни одного трека нет в базе AccurateRip

Конец отчёта




Los Straitjackets - Albums Collection 1995-2014 (16CD) [Re-Up + Upgrade]

Los Straitjackets - Jet Set (2012)
EAC | FLAC | Image (Cue&Log) ~ 300 Mb (incl 5%) | Mp3 (CBR320) ~ 116 Mb (incl 5%) | Scans included
Label: Yep Roc Records | # YEP-2268 | Time: 00:39:59

Jet Set, the 14th studio album from Nashville's masked marvels of instrumental guitar rock Los Straitjackets, sounds pretty much the way you'd expect an album from this band to sound – and that's one of the most satisfying things about it. Guitarist and co-founder Danny Amis (aka Daddy-O Grande) was forced to drop out of the band after he was diagnosed with multiple myeloma, but after a grueling two years of treatment, he returns to action on Jet Set, and longtime fans will heave a sigh of relief as they spin this disc and hear that Amis and his bandmates are sounding as sharp as ever. Los Straitjackets have been mining '60s instrumental rock for inspiration since 1988, and Jet Set demonstrates they haven't hit bottom just yet. From the slam-bang intro of "Crime Scene," the exotic escapades of "New Siberia" and "Sardinian Holiday," and the soulful strut of "Brooklyn Slide" to the frantic report of "Pop Rocks & Coke," the Latin accents of "Walking Down 3rd Street," and the easygoing pop melodicism of "Aerostar," Los Straitjackets still have lots of tuneful notions after more than two decades on the stand, and they thankfully still have the chops to make them fly. The light-speed picking by Amis and Eddie Angel on "Space Mosquito" is nothing short of dazzling, drummer Jason Smay masterfully drives the tunes and punctuates the melodies at the same time, and bassist Peter Curry keeps the bottom end locked down tight. Los Straitjackets haven't reinvented themselves on Jet Set, but that's not what this album is about. Instead, this music celebrates survival, perseverance, and most importantly the sheer joy of making music, and Jet Set captures a great band having a ball in the studio. Give it a listen and you'll be having a pretty fine time yourself.

Review by Mark Deming, Allmusic.com

Tracklist:

01. Crime Scene (02:34)
02. Yeah Yeah Yeah (02:23)
03. New Siberia (03:29)
04. Aerostar (02:49)
05. Brooklyn Slide (03:16)
06. Jet Set (02:42)
07. Low Tide (03:34)
08. Walking Down 3rd Street (02:41)
09. Bobsleddin' (02:02)
10. Wrong Way Inn (02:48)
11. Space Mosquito (02:14)
12. Sardinian Holiday (03:14)
13. Mr. Pink (02:36)
14. Pop Rocks & Coke (01:31)
15. Fur Sophia (02:01)


Exact Audio Copy V0.99 prebeta 5 from 4. May 2009

Отчёт EAC об извлечении, выполненном 7. августа 2012, 21:12

Los Straitjackets / Jet Set

Дисковод: PLEXTOR DVDR PX-880SA Adapter: 1 ID: 0

Режим чтения : Достоверность
Использование точного потока : Да
Отключение кэша аудио : Да
Использование указателей C2 : Нет

Коррекция смещения при чтении : 6
Способность читать области Lead-in и Lead-out : Нет
Заполнение пропущенных сэмплов тишиной : Да
Удаление блоков с тишиной в начале и конце : Нет
При вычислениях CRC использовались нулевые сэмплы : Да
Интерфейс : Установленный внешний ASPI-интерфейс

Выходной формат : Пользовательский кодировщик
Выбранный битрейт : 1024 kBit/s
Качество : Высокий
Добавление ID3-тэга : Нет
Утилита сжатия : C:\Program Files\Exact Audio Copy\FLAC\FLAC.EXE
Дополнительные параметры : -6 -V -T "ARTIST=%a" -T "TITLE=%t" -T "ALBUM=%g" -T "DATE=%y" -T "TRACKNUMBER=%n" -T "GENRE=%m" -T "COMMENT=%e" %s -o %d


TOC извлечённого CD

Трек | Старт | Длительность | Начальный сектор | Конечный сектор
––––––––––––––––––––––––––––––––––-
1 | 0:00.00 | 2:34.70 | 0 | 11619
2 | 2:34.70 | 2:23.50 | 11620 | 22394
3 | 4:58.45 | 3:29.34 | 22395 | 38103
4 | 8:28.04 | 2:49.02 | 38104 | 50780
5 | 11:17.06 | 3:16.02 | 50781 | 65482
6 | 14:33.08 | 2:42.53 | 65483 | 77685
7 | 17:15.61 | 3:34.51 | 77686 | 93786
8 | 20:50.37 | 2:41.28 | 93787 | 105889
9 | 23:31.65 | 2:02.15 | 105890 | 115054
10 | 25:34.05 | 2:48.52 | 115055 | 127706
11 | 28:22.57 | 2:14.07 | 127707 | 137763
12 | 30:36.64 | 3:14.00 | 137764 | 152313
13 | 33:50.64 | 2:36.42 | 152314 | 164055
14 | 36:27.31 | 1:31.10 | 164056 | 170890
15 | 37:58.41 | 2:01.22 | 170891 | 179987


Характеристики диапазона извлечения и сообщения об ошибках

Выбранный диапазон

Имя файла F:\BitComet\Los Straitjackets(flac)\2012 - Jet Set\Los Straitjackets - Jet Set.wav

Пиковый уровень 97.6 %
Качество диапазона 99.9 %
CRC теста E924D90C
CRC копии E924D90C
Копирование… OK

Ошибок не произошло


AccurateRip: сводка

Трек 1 нет в базе данных
Трек 2 нет в базе данных
Трек 3 нет в базе данных
Трек 4 нет в базе данных
Трек 5 нет в базе данных
Трек 6 нет в базе данных
Трек 7 нет в базе данных
Трек 8 нет в базе данных
Трек 9 нет в базе данных
Трек 10 нет в базе данных
Трек 11 нет в базе данных
Трек 12 нет в базе данных
Трек 13 нет в базе данных
Трек 14 нет в базе данных
Трек 15 нет в базе данных

Ни одного трека нет в базе AccurateRip

Конец отчёта




Los Straitjackets - Albums Collection 1995-2014 (16CD) [Re-Up + Upgrade]

Los Straitjackets & Deke Dickerson Sings the Great Instrumental Hits!!!!!! (2014)
EAC | FLAC | Image (Cue&Log) ~ 316 Mb | Mp3 (CBR320) ~ 120 Mb
Label: Yep Rock | # YEP-CD-2407 | Time: 00:38:36 | Scans included

Some songs are born instrumentals, and others have their non-vocal status thrust upon them. Los Straitjackets are the band that leads the field in recording instrumental albums with vocals, having made two albums (2001's Sing Along with los Straitjackets and 2007's Rock en Español, Vol. 1) where guest singers lend their voices to the band's acres of expressive, usually lyric-free twang. Now the Masked Men of Instrumental Rock have added a third vocal album to their list, and this time they've put a new spin on the concept by covering 14 well-known pop, rock, and surf instrumentals, and brought in Deke Dickerson to warble the oft-forgotten lyrics the tunes had all along (except for two numbers where Mark Winchester has come up with fresh words to match the melodies). Of course, part of the gimmick is that Los Straitjackets have partnered with a guy best known as a master guitarist to do the vocals on Sings the Great Instrumental Hits, but Dickerson is a solid and capable singer, and he has enough of a sense of humor to know how to play the (usually unintentional) silliness of these verses, and his con brio approach to "Fury," "Magic Star" (better known as "Telstar"), "Perfidia," and "Kawanga" is fitting and happily shameless. Of course, you also learn why hardly anyone sings the words to "Honky Tonk," "Walk, Don't Run," or "You Can Count on Me" (which in instrumental form was the theme song to Hawaii Five-0) by listening to these recordings (which Dickerson delivers in glorious deadpan). Los Straitjackets tear into these songs with their usual skill and guitar fire, and they put imaginative twists on a few numbers, playing "Miserlou" as a song of exotic romance in the desert, and referencing both Jørgen Ingmann and the Sugarhill Gang in their take on "Apache" (and Dickerson's rapping on the latter is itself worth the price of admission). Ultimately, Los Straitjackets are at their best without a singer, but in spite of this, Sings the Great Instrumental Hits works because the band is at the top of its game here, and Dickerson is an entertainer who knows what to do with this concept.

Mark Deming, Allmusic.com

Tracklist:

01. Fury (1:53)
02. Honky Tonk (2:47)
03. Magic Star (2:49)
04. Theme From A Summer Place (2:21)
05. Perfidia (2:39)
06. Apache (4:05)
07. Miserlou (3:00)
08. Kawanga(2:19)
09. Wild Weekend (2:30)
10. You Can Count On Me (2:05)
11. Walk Don't Run(2:09)
12. Popcorn (2:53)
13. Sleepwalk (3:20)
14. Pipeline (3:40)


Exact Audio Copy V1.0 beta 3 from 29. August 2011

Отчёт EAC об извлечении, выполненном 11. октября 2014, 11:48

Los Straitjackets / Deke Dickerson Sings the Great Instrumental Hits

Дисковод: PLEXTOR DVDR PX-880SA Adapter: 1 ID: 0

Режим чтения : Достоверность
Использование точного потока : Да
Отключение кэша аудио : Да
Использование указателей C2 : Нет

Коррекция смещения при чтении : 6
Способность читать области Lead-in и Lead-out : Нет
Заполнение пропущенных сэмплов тишиной : Да
Удаление блоков с тишиной в начале и конце : Нет
При вычислениях CRC использовались нулевые сэмплы : Да
Интерфейс : Установленный внешний ASPI-интерфейс

Выходной формат : Пользовательский кодировщик
Выбранный битрейт : 1024 kBit/s
Качество : Высокий
Добавление ID3-тега : Нет
Утилита сжатия : C:\Program Files\Exact Audio Copy\FLAC\FLAC.EXE
Дополнительные параметры : -10 -V -T "ARTIST=%artist%" -T "ALBUM=%albumtitle%" -T "DATE=%year%" -T "GENRE=%genre%" -T "COMMENT=ripped by izia1956" %source%


TOC извлечённого CD

Трек | Старт | Длительность | Начальный сектор | Конечный сектор
––––––––––––––––––––––––––––––––––-
1 | 0:00.00 | 1:53.38 | 0 | 8512
2 | 1:53.38 | 2:47.40 | 8513 | 21077
3 | 4:41.03 | 2:49.05 | 21078 | 33757
4 | 7:30.08 | 2:21.44 | 33758 | 44376
5 | 9:51.52 | 2:39.35 | 44377 | 56336
6 | 12:31.12 | 4:05.17 | 56337 | 74728
7 | 16:36.29 | 3:00.15 | 74729 | 88243
8 | 19:36.44 | 2:19.28 | 88244 | 98696
9 | 21:55.72 | 2:30.67 | 98697 | 110013
10 | 24:26.64 | 2:05.09 | 110014 | 119397
11 | 26:31.73 | 2:07.60 | 119398 | 128982
12 | 28:39.58 | 2:55.73 | 128983 | 142180
13 | 31:35.56 | 3:20.31 | 142181 | 157211
14 | 34:56.12 | 3:40.21 | 157212 | 173732


Характеристики диапазона извлечения и сообщения об ошибках

Выбранный диапазон

Имя файла D:\BitComet\Los Straitjackets(flac)\2014 - Deke Dickerson Sings the Great Instrumental Hits\Los Straitjackets - Deke Dickerson Sings the Great Instrumental Hits.wav

Пиковый уровень 100.0 %
Скорость извлечения 8.1 X
Качество диапазона 100.0 %
CRC теста 481C0729
CRC копии 481C0729
Копирование… OK

Ошибок не произошло


AccurateRip: сводка

Трек 1 отсутствует в базе данных
Трек 2 отсутствует в базе данных
Трек 3 отсутствует в базе данных
Трек 4 отсутствует в базе данных
Трек 5 отсутствует в базе данных
Трек 6 отсутствует в базе данных
Трек 7 отсутствует в базе данных
Трек 8 отсутствует в базе данных
Трек 9 отсутствует в базе данных
Трек 10 отсутствует в базе данных
Трек 11 отсутствует в базе данных
Трек 12 отсутствует в базе данных
Трек 13 отсутствует в базе данных
Трек 14 отсутствует в базе данных

Ни одного трека нет в базе AccurateRip

Конец отчёта

==== Контрольная сумма отчёта BA0E0E62B9FA70FA40DA92290BD6AAFED1C17FF4F1F9329497D4AF1FD014CE73 ====

foobar2000 1.2 / Dynamic Range Meter 1.1.1
log date: 2014-10-23 17:45:39

––––––––––––––––––––––––––––––––––––––––
Analyzed: Los Straitjackets / Deke Dickerson Sings the Great Instrumental Hits
––––––––––––––––––––––––––––––––––––––––

DR Peak RMS Duration Track
––––––––––––––––––––––––––––––––––––––––
DR8 -0.09 dB -9.21 dB 1:54 01-Fury
DR8 -0.18 dB -9.86 dB 2:48 02-Honky Tonk
DR8 -0.27 dB -9.65 dB 2:49 03-Magic Star
DR8 -0.91 dB -10.94 dB 2:22 04-A Summer Place
DR10 -0.09 dB -11.40 dB 2:39 05-Perfidia
DR9 0.00 dB -11.29 dB 4:05 06-Apache
DR9 0.00 dB -10.00 dB 3:00 07-Miserlou
DR8 -0.47 dB -9.37 dB 2:19 08-Kawanga
DR9 0.00 dB -9.53 dB 2:31 09-Wild Weekend
DR8 0.00 dB -9.14 dB 2:05 10-You Can Count On Me
DR9 -0.04 dB -9.83 dB 2:08 11-Walk Don't Run
DR8 0.00 dB -9.19 dB 2:56 12-Popcorn
DR9 -0.14 dB -10.53 dB 3:20 13-Sleepwalk
DR8 -0.19 dB -9.59 dB 3:40 14-Pipeline
––––––––––––––––––––––––––––––––––––––––

Number of tracks: 14
Official DR value: DR8

Samplerate: 44100 Hz
Channels: 2
Bits per sample: 16
Bitrate: 999 kbps
Codec: FLAC
================================================================================




All thanks to original releaser - izia1956

More interesting music in My Blog


NitroFlare:



Password: designol

http://nitroflare.com/view/0C84341284BA0E3/LsStrtjkts.flac.1995.rar
http://nitroflare.com/view/E2A76B789E94514/LsStrtjkts.flac.1996.rar
http://nitroflare.com/view/9EA739B9D78DFBC/LsStrtjkts.flac.1999.rar
http://nitroflare.com/view/F245B5946AA3AA8/LsStrtjkts.flac.2001.DyC.rar
http://nitroflare.com/view/DDA0B6A69198DEC/LsStrtjkts.flac.2001.Encyclv1.rar
http://nitroflare.com/view/520AA636DEA177B/LsStrtjkts.flac.2001.Sing.rar
http://nitroflare.com/view/1FB332A3B3E0DAE/LsStrtjkts.flac.2002.rar
http://nitroflare.com/view/307192E25B582E7/LsStrtjkts.flac.2003.Eddy.rar
http://nitroflare.com/view/B3B5939D0571D1F/LsStrtjkts.flac.2003.Supsnc.rar
http://nitroflare.com/view/1F80709E7875013/LsStrtjkts.flac.2004.rar
http://nitroflare.com/view/045A35651701F48/LsStrtjkts.flac.2007.RockEsp.rar
http://nitroflare.com/view/5D5BD39CF478FA1/LsStrtjkts.flac.2007.Twist.rar
http://nitroflare.com/view/1834826DDC5C8A7/LsStrtjkts.flac.2009.TheFurther.rar
http://nitroflare.com/view/F0691B1DC1C3BDC/LsStrtjkts.flac.2009.Yuletide.rar
http://nitroflare.com/view/A205FF39B0F2C3E/LsStrtjkts.flac.2012.rar
http://nitroflare.com/view/D8D50CDDC462F12/LsStrtjkts.flac.2014.rar

http://nitroflare.com/view/119E488679CCC2D/LsStrtjkts.mp3.1995.rar
http://nitroflare.com/view/86BB33433F3D674/LsStrtjkts.mp3.1996.rar
http://nitroflare.com/view/E391DD214654381/LsStrtjkts.mp3.1999.rar
http://nitroflare.com/view/968E8FE69D34B72/LsStrtjkts.mp3.2001.DyC.rar
http://nitroflare.com/view/7ABAF3009038D36/LsStrtjkts.mp3.2001.Encyclv1.rar
http://nitroflare.com/view/385EF4BF2FABB7D/LsStrtjkts.mp3.2001.Sing.rar
http://nitroflare.com/view/AD107C2B2A9F012/LsStrtjkts.mp3.2002.rar
http://nitroflare.com/view/0BD65C244B98DEE/LsStrtjkts.mp3.2003.Eddy.rar
http://nitroflare.com/view/32951A846E38806/LsStrtjkts.mp3.2003.Supsnc.rar
http://nitroflare.com/view/E902B64D887BA4B/LsStrtjkts.mp3.2004.rar
http://nitroflare.com/view/664DAB490454063/LsStrtjkts.mp3.2007.RockEsp.rar
http://nitroflare.com/view/26B3D3A4979B439/LsStrtjkts.mp3.2007.Twist.rar
http://nitroflare.com/view/D68323EA10195D5/LsStrtjkts.mp3.2009.TheFurther.rar
http://nitroflare.com/view/3A1406E76FE8B8C/LsStrtjkts.mp3.2009.Yuletide.rar
http://nitroflare.com/view/F9034A28DFCC36D/LsStrtjkts.mp3.2012.rar
http://nitroflare.com/view/AB6832418B1F0FF/LsStrtjkts.mp3.2014.rar



Bigfile:



Password: designol

https://www.bigfile.to/file/dgb35z2UJAnw/LsStrtjkts.flac.1995.rar
https://www.bigfile.to/file/QuDabUN6a4K3/LsStrtjkts.flac.1996.rar
https://www.bigfile.to/file/E2agh3FVHPWg/LsStrtjkts.flac.1999.rar
https://www.bigfile.to/file/KhPTayqEdVxE/LsStrtjkts.flac.2001.DyC.rar
https://www.bigfile.to/file/4vWfepd3YaYr/LsStrtjkts.flac.2001.Encyclv1.rar
https://www.bigfile.to/file/5D5MhwdsWjzt/LsStrtjkts.flac.2001.Sing.rar
https://www.bigfile.to/file/V5bApnBfXnws/LsStrtjkts.flac.2002.rar
https://www.bigfile.to/file/fspGb66PVCCb/LsStrtjkts.flac.2003.Eddy.rar
https://www.bigfile.to/file/SUM8fknJWces/LsStrtjkts.flac.2003.Supsnc.rar
https://www.bigfile.to/file/kmPBkPe8cXnx/LsStrtjkts.flac.2004.rar
https://www.bigfile.to/file/fRb2c2FaE8Q7/LsStrtjkts.flac.2007.RockEsp.rar
https://www.bigfile.to/file/B8fwgr6Rh7bs/LsStrtjkts.flac.2007.Twist.rar
https://www.bigfile.to/file/njZtveZ4YeTC/LsStrtjkts.flac.2009.TheFurther.rar
https://www.bigfile.to/file/qNZdHtSwnbJW/LsStrtjkts.flac.2009.Yuletide.rar
https://www.bigfile.to/file/BsTeqpfYqugw/LsStrtjkts.flac.2012.rar
https://www.bigfile.to/file/3FJuEzdnGfrT/LsStrtjkts.flac.2014.rar

https://www.bigfile.to/file/5uyaNbKH8c25/LsStrtjkts.mp3.1995.rar
https://www.bigfile.to/file/MvDp9Cmv9ySf/LsStrtjkts.mp3.1996.rar
https://www.bigfile.to/file/xaKAD6WvAyDD/LsStrtjkts.mp3.1999.rar
https://www.bigfile.to/file/dCBAMmcWAqRX/LsStrtjkts.mp3.2001.DyC.rar
https://www.bigfile.to/file/2eHPbRXgETC7/LsStrtjkts.mp3.2001.Encyclv1.rar
https://www.bigfile.to/file/hZEbKKx5WceP/LsStrtjkts.mp3.2001.Sing.rar
https://www.bigfile.to/file/f8bc7ER2U8Mt/LsStrtjkts.mp3.2002.rar
https://www.bigfile.to/file/pXWecVWXhtqx/LsStrtjkts.mp3.2003.Eddy.rar
https://www.bigfile.to/file/kKugtUYy7dMm/LsStrtjkts.mp3.2003.Supsnc.rar
https://www.bigfile.to/file/2Pj9uM2N8BWU/LsStrtjkts.mp3.2004.rar
https://www.bigfile.to/file/86n3VEJ8M9jR/LsStrtjkts.mp3.2007.RockEsp.rar
https://www.bigfile.to/file/TesQ6w5xVeSV/LsStrtjkts.mp3.2007.Twist.rar
https://www.bigfile.to/file/XzKHCPDnd4jn/LsStrtjkts.mp3.2009.TheFurther.rar
https://www.bigfile.to/file/pCxuaeKtf9Ff/LsStrtjkts.mp3.2009.Yuletide.rar
https://www.bigfile.to/file/S66rjsuRRjVT/LsStrtjkts.mp3.2012.rar
https://www.bigfile.to/file/KnWSpyw3Ac4r/LsStrtjkts.mp3.2014.rar