Subcategories

Los Lobos - This Time (1999) [MFSL, 2004]

Posted By: gribovar
Los Lobos - This Time (1999) [MFSL, 2004]

Los Lobos - This Time (1999) [MFSL, 2004]
EAC Rip | FLAC (image+.cue+log) - 257 MB | MP3 CBR 320 kbps (LAME 3.93) - 101 MB | Covers included
Genre: Rock | RAR 3% Rec. | Label: Mobile Fidelity Sound Lab (UDSACD 2024)

Given all the extracurricular projects members of Los Lobos pursued during the three years separating Colossal Head and its followup, it's not surprising that they've decided to show off what they've learned on This Time, resulting in a record that vacillates between songcraft and sonic sculptures. It could be said that Kiko and Colassal Head were like this as well, but the difference is that This Time has the structure of a straight-ahead rock & roll record, clocking in at 38 minutes with 11 short tracks. While that conciseness is welcome, it also points out the flaws in the post-Latin Playboys Los Lobos - Cesar Rosas' fine rockers are obscured by a layer of studio gauze, and David Hidalgo's songs can seem like excuses to run wild in the studio. If the production was truly evocative or innovative, that wouldn't be a problem, but This Time is another in a long line of murky, self-conscious productions from Froom, Blake, and Hidalgo, where creating sound is more important than making music. This is especially frustrating, since This Time has elements of a very good record - it's paced well and boasts strong moments from both Hidalgo ("This Time," "Turn Around") and Rosas ("Oh Yeah," "Cumbia Raza"). As it stands, it is Los Lobos' tightest record since The Neighborhood, but it's hard not to feel that it could have been better if Los Lobos saved the "explorations" for their side-projects.
Tracklist:
01. This Time
02. Oh Yeah
03. Viking
04. High Places
05. Cumbia Raza
06. Run Away With You
07. Corazon
08. Some Say, Some Do
09. Turn Around
10. La Playa
11. Why We Wish

Total time: 38:08

Exact Audio Copy V0.99 prebeta 4 from 23. January 2008

Отчёт EAC об извлечении, выполненном 13. июля 2008, 20:07

Los Lobos / This Time

Дисковод: ASUS DRW-1814BL Adapter: 1 ID: 0

Режим чтения : Достоверность
Использование точного потока : Да
Отключение кэша аудио : Да
Использование указателей C2 : Нет

Коррекция смещения при чтении : 6
Способность читать области Lead-in и Lead-out : Нет
Заполнение пропущенных сэмплов тишиной : Да
Удаление блоков с тишиной в начале и конце : Нет
При вычислениях CRC использовались нулевые сэмплы : Да
Интерфейс : Установленный внешний ASPI-интерфейс

Выходной формат : Пользовательский кодировщик
Выбранный битрейт : 128 kBit/s
Качество : Высокий
Добавление ID3-тэга : Нет
Утилита сжатия : C:\Program Files\FLAC\FLAC frontend.exe
Дополнительные параметры : -T "artist=%a" -T "title=%t" -T "album=%g" -T "date=%y" -T "tracknumber=%n" -T "genre=%m" -5 %s


TOC извлечённого CD

Трек | Старт | Длительность | Начальный сектор | Конечный сектор
––––––––––––––––––––––––––––––––––-
1 | 0:00.00 | 3:31.50 | 0 | 15874
2 | 3:31.50 | 3:43.50 | 15875 | 32649
3 | 7:15.25 | 3:29.52 | 32650 | 48376
4 | 10:45.02 | 4:22.53 | 48377 | 68079
5 | 15:07.55 | 2:46.07 | 68080 | 80536
6 | 17:53.62 | 3:05.48 | 80537 | 94459
7 | 20:59.35 | 4:07.15 | 94460 | 112999
8 | 25:06.50 | 3:08.25 | 113000 | 127124
9 | 28:15.00 | 3:46.30 | 127125 | 144104
10 | 32:01.30 | 3:11.27 | 144105 | 158456
11 | 35:12.57 | 2:55.30 | 158457 | 171611


Характеристики диапазона извлечения и сообщения об ошибках

Выбранный диапазон

Имя файла H:\Downloads\Los Lobos - This Time (1999)\Los Lobos - This Time.wav

Пиковый уровень 100.0 %
Качество диапазона 100.0 %
CRC копии FEEECE9A
Копирование… OK

Ошибок не произошло


AccurateRip: сводка

Трек 1 нет в базе данных
Трек 2 нет в базе данных
Трек 3 нет в базе данных
Трек 4 нет в базе данных
Трек 5 нет в базе данных
Трек 6 нет в базе данных
Трек 7 нет в базе данных
Трек 8 нет в базе данных
Трек 9 нет в базе данных
Трек 10 нет в базе данных
Трек 11 нет в базе данных

Ни одного трека нет в базе AccurateRip

Конец отчёта

[CUETools log; Date: 17.01.2013 18:24:19; Version: 2.0.9]
[CTDB TOCID: 8IUgGcDqzOCX0Y00XI0CKJ2HR6M-] found.
[ CTDBID ] Status
[e197d111] (4/4) Accurately ripped
[AccurateRip ID: 00101646-008ad94d-8c08f00b] found.
Track [ CRC ] Status
01 [72714dbd] (5/7) Accurately ripped
02 [5f4eee06] (5/7) Accurately ripped
03 [fed0f81b] (5/7) Accurately ripped
04 [89a0e7ed] (5/7) Accurately ripped
05 [3d8ceca6] (5/7) Accurately ripped
06 [49691273] (5/7) Accurately ripped
07 [8f1f9f7c] (5/7) Accurately ripped
08 [02527ebb] (5/7) Accurately ripped
09 [731cf671] (5/7) Accurately ripped
10 [34bf764c] (5/7) Accurately ripped
11 [2d201d4f] (5/7) Accurately ripped

Track Peak [ CRC32 ] [W/O NULL] [ LOG ]
– 100,0 [FEEECE9A] [5DA1E838]
01 95,5 [7EF1057D] [17B84BBC] [FEEECE9A]
02 100,0 [9A40D7FA] [63FEE2EB] [FEEECE9A]
03 95,1 [3ACEF7F1] [91DCBD83]
04 91,0 [BA3997EA] [2EBD58B5]
05 100,0 [B024D1FC] [B533C081]
06 97,4 [FCA9114C] [80EF6DF9]
07 95,4 [794B7496] [BF35F2E5]
08 98,6 [49791914] [99594CA6]
09 100,0 [4283BFAD] [D5278B06]
10 96,5 [6861A2E4] [DEB3DD89]
11 99,6 [27306216] [CCF023B4]

Thanks to SergeyVP

More MFSL releases from my blog:
MFSL releases

Los Lobos - This Time (1999) [MFSL, 2004]
LOSSLESS:

Filepost.com
________________

MP3 320 kbps:

Filepost.com