Subcategories

Los Rodriguez - Hasta Luego (1996)

Posted By: juanchito
Los Rodriguez - Hasta Luego (1996)

Los Rodriguez - Hasta Luego (1996)
EAC Rip | FLAC, IMG+CUE, LOG | 501 MB | Full Scans 200 dpi | 60 min 38 sec | HF/FS
Genre: Pop / Rock / Latin | Label: Wea Argentina


Pop/rock Band Formed in Spain by Argentinean Singer/Keyboardist Andres Calamaro, Ex-los Abuelos De La Nada. This Collection of Hits and Unreleased Songs Covers the Years 1990-1996. Includes the Songs: ' Milonga Del Marinero Y El Capitan', 'mi Enfermedad (1996 Version)', 'sin Documentos' and 'para No Olvidar'.


Track Listings
1. Mi Enfermedad (Version 96)
2. Copa Rota
3. Los Ojos
4. Enganchate Conmigo
5. Buena Suerte
6. Canal 69
7. Sin Documentos
8. Me Estas Atrapando Otra Vez (En Vivo 96)
9. Dulce Condena
10. Salud (Dinero & Amor)
11. Palabras Mas, Palabras Menos (En Vivo 96)
12. Aqui No Podemos Hacerlo (Jb Dub 96)
13. Milonga Del Marinero Y El
14. Extrano (Version 96)
15. Para No Olvidar
16. Mucho Mejor (Version 96)
17. En El Ultimo Trago (Version 96)
18. Cuanto T Has Ido (Demo 92)
19. Mirada Del Adios (Demo 90)


Exact Audio Copy V1.0 beta 1 from 15. November 2010

EAC extraction logfile from 3. March 2011, 13:34

Los Rodríguez / Hasta Luego

Used drive : HL-DT-STDVDRAM GSA-H60N Adapter: 0 ID: 0

Read mode : Secure
Utilize accurate stream : Yes
Defeat audio cache : No
Make use of C2 pointers : Yes

Read offset correction : 667
Overread into Lead-In and Lead-Out : No
Fill up missing offset samples with silence : Yes
Delete leading and trailing silent blocks : No
Null samples used in CRC calculations : No
Used interface : Installed external ASPI interface

Used output format : User Defined Encoder
Selected bitrate : 768 kBit/s
Quality : High
Add ID3 tag : No
Command line compressor : I:\Archivos de programa\Exact Audio Copy\FLAC\FLAC.EXE
Additional command line options : -6 -V -T "ARTIST=%a" -T "TITLE=%t" -T "ALBUM=%g" -T "DATE=%y" -T "TRACKNUMBER=%n" -T "GENRE=%m" -T "COMMENT=%e" %j–picture="%i"%j %s -o %d


TOC of the extracted CD

Track | Start | Length | Start sector | End sector
––––––––––––––––––––––––––––-
1 | 0:00.00 | 3:33.66 | 0 | 16040
2 | 3:33.66 | 3:43.21 | 16041 | 32786
3 | 7:17.12 | 4:14.32 | 32787 | 51868
4 | 11:31.44 | 3:22.36 | 51869 | 67054
5 | 14:54.05 | 3:07.18 | 67055 | 81097
6 | 18:01.23 | 3:04.53 | 81098 | 94950
7 | 21:06.01 | 4:46.52 | 94951 | 116452
8 | 25:52.53 | 7:14.51 | 116453 | 149053
9 | 33:07.29 | 4:40.16 | 149054 | 170069
10 | 37:47.45 | 3:23.28 | 170070 | 185322
11 | 41:10.73 | 4:35.26 | 185323 | 205973
12 | 45:46.24 | 4:36.67 | 205974 | 226740
13 | 50:23.16 | 3:25.61 | 226741 | 242176
14 | 53:49.02 | 4:03.11 | 242177 | 260412
15 | 57:52.13 | 4:11.68 | 260413 | 279305
16 | 62:04.06 | 4:05.05 | 279306 | 297685
17 | 66:09.11 | 3:14.47 | 297686 | 312282
18 | 69:23.58 | 2:28.21 | 312283 | 323403
19 | 71:52.04 | 2:45.71 | 323404 | 335849


Range status and errors

Selected range

Filename I:\Documents and Settings\Adrian\Mis documentos\Mi música\Los Rodríguez - Hasta Luego.wav

Peak level 100.0 %
Extraction speed 1.0 X
Range quality 100.0 %
Copy CRC 55617D7D
Copy OK

No errors occurred


AccurateRip summary

Track 1 accurately ripped (confidence 2) [7E30CEDE]
Track 2 not present in database
Track 3 not present in database
Track 4 accurately ripped (confidence 2) [97ACDCB1]
Track 5 accurately ripped (confidence 2) [7085C6CA]
Track 6 accurately ripped (confidence 2) [465D5A62]
Track 7 accurately ripped (confidence 2) [E0729C09]
Track 8 accurately ripped (confidence 2) [AF9785F7]
Track 9 accurately ripped (confidence 2) [335A8193]
Track 10 accurately ripped (confidence 3) [656AD360]
Track 11 accurately ripped (confidence 3) [27DF671B]
Track 12 accurately ripped (confidence 3) [B4BBAF2E]
Track 13 accurately ripped (confidence 3) [11BBC977]
Track 14 accurately ripped (confidence 3) [31CDF8C5]
Track 15 accurately ripped (confidence 3) [4C1513BD]
Track 16 accurately ripped (confidence 3) [13E38627]
Track 17 accurately ripped (confidence 3) [A3D30307]
Track 18 accurately ripped (confidence 2) [5059B359]
Track 19 accurately ripped (confidence 2) [B83EB052]

17 track(s) accurately ripped
2 track(s) not present in the AccurateRip database

Some tracks could not be verified as accurate

End of status report


Hotfile
Part1
Part2
Part3

or

Filesonic
Part1
Part2
Part3

pass: juanchito