Subcategories

Loudness - Thunder In The East (1985) [35th Anniversary Ed. 2015] BOX - Ultimate Edition - 3CD+2DVD

Posted By: Andi_Deris
Loudness - Thunder In The East (1985) [35th Anniversary Ed. 2015] BOX - Ultimate Edition - 3CD+2DVD

Loudness - Thunder In The East (1985) [35th Anniversary Ed. 2015] BOX - Ultimate Edition - 3CD+2DVD
EAC Rip | FLAC: Image+Cue+Log | 949 Mb | MP3 CBR 320 kbps | 304 Mb | Scans | 151 Mb
DVD9 | Video: NTSC 16:9 (720x480) VBR | Audio: LinearPCM, 2 ch | 6.7+6.8 Gb
Nippon Colombia Co., Ltd. | COZP-1102~4 + COZP-1105~6
Heavy Metal

First release to commemorate the 35th anniversary of LOUDNESS is special reissue of the album "THUNDER IN THE EAST" with remastering in 2015 and unreleased track(s) as bonus. This is a limited box edition consisting of three CDs, two DVDs, a vinyl, an EP, and a cassette tape. The two CDs contain unreleased tracks related to the album "THUNDER IN THE EAST. The two bonus DVDs featuring bonus videos exclusively included in this edition and same contents in other edition (COZP-1099 / documentary on them when they debuted in U.S. and live footage). The vinyl is reissue of the original LP, "THUNDER IN THE EAST." The 7-inch. EP is also reissue of "CRAZY NIGHT." The cassette tape contains unreleased tracks. Furthermore, the set comes with the following bonus: special booklet with rare photos, liner notes, and comments / reproduction of tour pamphlet(s) / "THUNDER IN THE EAST TOUR IN THE WEST 1985" T-shirt with logo / "TOUR IN THE WEST" laminated pass with logo / guitar pick x 4.

Loudness - Thunder In The East (1985) [35th Anniversary Ed. 2015] BOX - Ultimate Edition - 3CD+2DVD




CD1: Thunder In The East
42:01

01. Crazy Night (04:05)
02. Like Hell (03:48)
03. Heavy Chains (04:20)
04. Get Away (03:56)
05. We Could Be Together (04:50)
06. Run For Your Life (03:59)
07. Clockwork Toy (03:58)
08. No Way Out (04:03)
09. The Lines Are Down (04:52)
10. Never Change Your Mind (04:10)

CD2: Before And After ~First Demo Tracks from Japan~
37:29

01. The Lines Are Down (Unreleased Demo-M3-) (05:15)
02. We Could Be Together (Unreleased Demo-M2-) (04:56)
03. Get Away (Unreleased Demo-M5-) (04:23)
04. Run For Your Life (Unreleased Demo-M6-) (04:02)
05. Crazy Nights (Unreleased Demo-M4-) (03:44)
06. Firestorm (Unreleased Demo-M7-) (03:55)
07. Heavy Chains (Unreleased Demo-M11-) (04:55)
08. Never Change Your Mind (Unreleased Demo-M10-) (03:58)
09. Eruption (Unreleased Demo-M9-) (02:23)

CD3: Before And After ~Recording Tracks from Studio Sound City 1984.9.25~
42:06

01. Heavy Chains (Unreleased-M11-) (04:21)
02. Get Away (Unreleased-M5-) (04:06)
03. No Way Out (Unreleased-M15-) (04:05)
04. Clockwork Toy (Unreleased-M17-) (03:55)
05. The Lines Are Down (Unreleased-M3-) (04:54)
06. Crazy Nights (Unreleased-M4-) (04:09)
07. Like Hell (Unreleased-M13-) (03:48)
08. Never Change Your Mind (Unreleased-M10-) (04:10)
09. Run For Your Life (Unreleased-M6-) (03:58)
10. We Could Be Together (Unreleased-M2-) (04:39)

DVD1: A Documentary Of Thousand In The East

ドキュメンタリー作品 『A Documentary of THUNDER IN THE EAST』(約120min)

Loudness - Thunder In The East (1985) [35th Anniversary Ed. 2015] BOX - Ultimate Edition - 3CD+2DVD

Loudness - Thunder In The East (1985) [35th Anniversary Ed. 2015] BOX - Ultimate Edition - 3CD+2DVD
Loudness - Thunder In The East (1985) [35th Anniversary Ed. 2015] BOX - Ultimate Edition - 3CD+2DVD
Loudness - Thunder In The East (1985) [35th Anniversary Ed. 2015] BOX - Ultimate Edition - 3CD+2DVD
Loudness - Thunder In The East (1985) [35th Anniversary Ed. 2015] BOX - Ultimate Edition - 3CD+2DVD
Loudness - Thunder In The East (1985) [35th Anniversary Ed. 2015] BOX - Ultimate Edition - 3CD+2DVD


DVD2: Thunder In The Eas 1985 US Tour Live

ライブ映像作品 『THUNDER IN THE EAST 1985 US TOUR LIVE』(約 97min)

01. Crazy Doctor
02. We Could Be Together
03. Heavy Chains
04. No Way Out
05. Drum Solo
06. Get Away
07. Guitar Solo
08. Crazy Nights
09. Crazy Nights
10. Crazy Doctor
11. Drum Solo
12. Crazy Doctor
13. Loudness
14. Guitar Solo
15. Crazy Doctor
16. Heavy Chains
17. Loudness
18. Guitar Solo

Tracks 1~8: AUG 13 ALLENTOWN, PENNSYLVANIA THE FAIRGROUNDS
Track 9: AUG 14 NEW YORK CITY MADISON SQUARE GARDEN
Track 10: SEP 12 MADISON, WISCONSIN DANE COUNTY COLISEUM
Track 11: SEP 14 SAGINAW, MICHIGAN WENDLER ARENA
Tracks 12~14: SEP 17 LANSING, MICHIGAN CIVIC CENTER
Tracks 15~18: SEP 18 TOLEDO, OHIO SPORTS ARENA
+プレミアムBOX限定特典映像(約50min)
・ドキュメンタリーフィルム “5th ANNIVERSARY LOUDNESS 8186 TOUR SPECIAL"
・二井原実 山下昌良 「想い出のロスアンジェルス 2015秋編」

Loudness - Thunder In The East (1985) [35th Anniversary Ed. 2015] BOX - Ultimate Edition - 3CD+2DVD

Loudness - Thunder In The East (1985) [35th Anniversary Ed. 2015] BOX - Ultimate Edition - 3CD+2DVD
Loudness - Thunder In The East (1985) [35th Anniversary Ed. 2015] BOX - Ultimate Edition - 3CD+2DVD
Loudness - Thunder In The East (1985) [35th Anniversary Ed. 2015] BOX - Ultimate Edition - 3CD+2DVD
Loudness - Thunder In The East (1985) [35th Anniversary Ed. 2015] BOX - Ultimate Edition - 3CD+2DVD
Loudness - Thunder In The East (1985) [35th Anniversary Ed. 2015] BOX - Ultimate Edition - 3CD+2DVD
Loudness - Thunder In The East (1985) [35th Anniversary Ed. 2015] BOX - Ultimate Edition - 3CD+2DVD
Loudness - Thunder In The East (1985) [35th Anniversary Ed. 2015] BOX - Ultimate Edition - 3CD+2DVD


Produced by Max Norman

The Band

• Minoru Niihara - vocals
• Akira Takasaki - guitars
• Masayoshi Yamashita - bass
• Munetaka Higuchi - drums

Loudness - Thunder In The East (1985) [35th Anniversary Ed. 2015] BOX - Ultimate Edition - 3CD+2DVD

Loudness - Thunder In The East (1985) [35th Anniversary Ed. 2015] BOX - Ultimate Edition - 3CD+2DVD


Exact Audio Copy V1.3 from 2. September 2016

EAC extraction logfile from 15. October 2016, 21:19

Loudness / Thunder In The East

Used drive : TSSTcorpBDDVDW SE-506BB Adapter: 2 ID: 0

Read mode : Secure
Utilize accurate stream : Yes
Defeat audio cache : Yes
Make use of C2 pointers : No

Read offset correction : 6
Overread into Lead-In and Lead-Out : No
Fill up missing offset samples with silence : Yes
Delete leading and trailing silent blocks : No
Null samples used in CRC calculations : Yes
Used interface : Installed external ASPI interface

Used output format : User Defined Encoder
Selected bitrate : 768 kBit/s
Quality : High
Add ID3 tag : No
Command line compressor : C:\Progs\wavpack\wavpack.exe
Additional command line options : -h -d %source%


TOC of the extracted CD

Track | Start | Length | Start sector | End sector
––––––––––––––––––––––––––––-
1 | 0:00.00 | 4:05.01 | 0 | 18375
2 | 4:05.01 | 3:47.61 | 18376 | 35461
3 | 7:52.62 | 4:20.09 | 35462 | 54970
4 | 12:12.71 | 3:56.22 | 54971 | 72692
5 | 16:09.18 | 4:49.45 | 72693 | 94412
6 | 20:58.63 | 3:58.55 | 94413 | 112317
7 | 24:57.43 | 3:58.10 | 112318 | 130177
8 | 28:55.53 | 4:03.15 | 130178 | 148417
9 | 32:58.68 | 4:51.57 | 148418 | 170299
10 | 37:50.50 | 4:09.41 | 170300 | 189015


Range status and errors

Selected range

Filename E:\COZP1102-6\COZP1102.wav

Peak level 98.8 %
Extraction speed 1.8 X
Range quality 99.9 %
Test CRC 8874B88B
Copy CRC 8874B88B
Copy OK

No errors occurred


AccurateRip summary

Track 1 accurately ripped (confidence 2) [CA08FC62] (AR v2)
Track 2 accurately ripped (confidence 2) [EFBC3119] (AR v2)
Track 3 accurately ripped (confidence 2) [AB0A56C6] (AR v2)
Track 4 accurately ripped (confidence 2) [2A5CA2B1] (AR v2)
Track 5 accurately ripped (confidence 2) [0AE28F12] (AR v2)
Track 6 accurately ripped (confidence 2) [46DD5BC2] (AR v2)
Track 7 accurately ripped (confidence 2) [6BCC2572] (AR v2)
Track 8 accurately ripped (confidence 2) [4E989119] (AR v2)
Track 9 accurately ripped (confidence 2) [E815B652] (AR v2)
Track 10 accurately ripped (confidence 2) [0D329373] (AR v2)

All tracks accurately ripped

End of status report

–– CUETools DB Plugin V2.1.6

[CTDB TOCID: 7mliBdK15c9MB7bZWwAMuUw5.08-] found
Submit result: 7mliBdK15c9MB7bZWwAMuUw5.08- has been confirmed
Track | CTDB Status
1 | (11/11) Accurately ripped
2 | (11/11) Accurately ripped
3 | (11/11) Accurately ripped
4 | (11/11) Accurately ripped
5 | (11/11) Accurately ripped
6 | (11/11) Accurately ripped
7 | (11/11) Accurately ripped
8 | (11/11) Accurately ripped
9 | (11/11) Accurately ripped
10 | (11/11) Accurately ripped


==== Log checksum 3AFC73B8971DD41541D703EFF207F740149B3F878813CAFECEC07DD2B6C60FB7 ====

Exact Audio Copy V1.3 from 2. September 2016

EAC extraction logfile from 15. October 2016, 21:55

Loudness / COZP1103

Used drive : TSSTcorpBDDVDW SE-506BB Adapter: 2 ID: 0

Read mode : Secure
Utilize accurate stream : Yes
Defeat audio cache : Yes
Make use of C2 pointers : No

Read offset correction : 6
Overread into Lead-In and Lead-Out : No
Fill up missing offset samples with silence : Yes
Delete leading and trailing silent blocks : No
Null samples used in CRC calculations : Yes
Used interface : Installed external ASPI interface

Used output format : User Defined Encoder
Selected bitrate : 768 kBit/s
Quality : High
Add ID3 tag : No
Command line compressor : C:\Progs\wavpack\wavpack.exe
Additional command line options : -h -d %source%


TOC of the extracted CD

Track | Start | Length | Start sector | End sector
––––––––––––––––––––––––––––-
1 | 0:00.00 | 5:14.32 | 0 | 23581
2 | 5:14.32 | 4:55.39 | 23582 | 45745
3 | 10:09.71 | 4:22.61 | 45746 | 65456
4 | 14:32.57 | 4:01.55 | 65457 | 83586
5 | 18:34.37 | 3:44.07 | 83587 | 100393
6 | 22:18.44 | 3:55.07 | 100394 | 118025
7 | 26:13.51 | 4:54.33 | 118026 | 140108
8 | 31:08.09 | 3:57.45 | 140109 | 157928
9 | 35:05.54 | 2:22.63 | 157929 | 168641


Range status and errors

Selected range

Filename E:\COZP1102-6\Loudness - COZP1103.wav

Peak level 96.8 %
Extraction speed 1.6 X
Range quality 99.9 %
Copy CRC 0308D7DF
Copy OK

No errors occurred


AccurateRip summary

Track 1 not present in database
Track 2 not present in database
Track 3 not present in database
Track 4 not present in database
Track 5 not present in database
Track 6 not present in database
Track 7 not present in database
Track 8 not present in database
Track 9 not present in database

None of the tracks are present in the AccurateRip database

End of status report

–– CUETools DB Plugin V2.1.6

[CTDB TOCID: ixIzoLQ_kJiz0Gh0R7PImkRRatA-] found
Submit result: ixIzoLQ_kJiz0Gh0R7PImkRRatA- has been confirmed
Track | CTDB Status
1 | (3/3) Accurately ripped
2 | (3/3) Accurately ripped
3 | (3/3) Accurately ripped
4 | (3/3) Accurately ripped
5 | (3/3) Accurately ripped
6 | (3/3) Accurately ripped
7 | (3/3) Accurately ripped
8 | (3/3) Accurately ripped
9 | (3/3) Accurately ripped


==== Log checksum E32B945184DBEEBE3B6DD156BF3691AD4B9AB1D55EC61D99058135B69BB65F99 ====

Exact Audio Copy V1.3 from 2. September 2016

EAC extraction logfile from 15. October 2016, 22:34

Loudness / COZP1104

Used drive : TSSTcorpBDDVDW SE-506BB Adapter: 2 ID: 0

Read mode : Secure
Utilize accurate stream : Yes
Defeat audio cache : Yes
Make use of C2 pointers : No

Read offset correction : 6
Overread into Lead-In and Lead-Out : No
Fill up missing offset samples with silence : Yes
Delete leading and trailing silent blocks : No
Null samples used in CRC calculations : Yes
Used interface : Installed external ASPI interface

Used output format : User Defined Encoder
Selected bitrate : 768 kBit/s
Quality : High
Add ID3 tag : No
Command line compressor : C:\Progs\wavpack\wavpack.exe
Additional command line options : -h -d %source%


TOC of the extracted CD

Track | Start | Length | Start sector | End sector
––––––––––––––––––––––––––––-
1 | 0:00.00 | 4:21.30 | 0 | 19604
2 | 4:21.30 | 4:06.10 | 19605 | 38064
3 | 8:27.40 | 4:05.08 | 38065 | 56447
4 | 12:32.48 | 3:54.65 | 56448 | 74062
5 | 16:27.38 | 4:53.48 | 74063 | 96085
6 | 21:21.11 | 4:08.31 | 96086 | 114716
7 | 25:29.42 | 3:48.07 | 114717 | 131823
8 | 29:17.49 | 4:09.74 | 131824 | 150572
9 | 33:27.48 | 3:57.68 | 150573 | 168415
10 | 37:25.41 | 4:39.26 | 168416 | 189366


Range status and errors

Selected range

Filename E:\COZP1102-6\Loudness - COZP1104.wav

Peak level 97.0 %
Extraction speed 1.8 X
Range quality 100.0 %
Copy CRC 64FBE7AE
Copy OK

No errors occurred


AccurateRip summary

Track 1 not present in database
Track 2 not present in database
Track 3 not present in database
Track 4 not present in database
Track 5 not present in database
Track 6 not present in database
Track 7 not present in database
Track 8 not present in database
Track 9 not present in database
Track 10 not present in database

None of the tracks are present in the AccurateRip database

End of status report

–– CUETools DB Plugin V2.1.6

[CTDB TOCID: bDRxE6TQrLbycf_uMdFWRsRgpfs-] found
Submit result: bDRxE6TQrLbycf_uMdFWRsRgpfs- has been confirmed
Track | CTDB Status
1 | (3/3) Accurately ripped
2 | (3/3) Accurately ripped
3 | (3/3) Accurately ripped
4 | (3/3) Accurately ripped
5 | (3/3) Accurately ripped
6 | (3/3) Accurately ripped
7 | (3/3) Accurately ripped
8 | (3/3) Accurately ripped
9 | (3/3) Accurately ripped
10 | (3/3) Accurately ripped


==== Log checksum DC49DCC70026F7233DE9409A4DA6031B3E333277668141C04BF20137CAEE7059 ====


Size: 7.15 Gb ( 7 494 734,00 KBytes ) - DVD-9
Enabled regions: 1, 2, 3, 4, 5, 6, 7, 8

VTS_01 :
Play Length: 02:05:17
Video: NTSC 16:9 (720x480) VBR, Auto Letterboxed
Audio:
Not specified (LinearPCM, 2 ch)

* Menus Information *

VIDEO_TS Menu
Video:
NTSC 16:9 (720x480) VBR
Auto Letterboxed
Audio:
Not specified (LinearPCM, 2 ch)
Japanese Language Unit :
Title Menu

VTS_01 Menu
Video:
NTSC 16:9 (720x480) VBR
Auto Letterboxed
Japanese Language Unit :
Root Menu

Size: 7.75 Gb ( 8 124 794,00 KBytes ) - DVD-9
Enabled regions: 1, 2, 3, 4, 5, 6, 7, 8

VTS_01 :
Play Length: 01:39:44+00:19:52+00:30:42
Video: NTSC 16:9 (720x480) VBR, Auto Letterboxed
Audio:
Not specified (LinearPCM, 2 ch)

* Menus Information *

VIDEO_TS Menu
Video:
NTSC 16:9 (720x480) VBR
Auto Letterboxed
Audio:
Not specified (LinearPCM, 2 ch)
Japanese Language Unit :
Title Menu

VTS_01 Menu
Video:
NTSC 16:9 (720x480) VBR
Auto Letterboxed
Japanese Language Unit :
Root Menu


Many thanks to the original uploader: SHI



Password: pass