Subcategories

Louis Armstrong - Hot Five & Hot Seven: West End Blues 1926-1928 (1991)

Posted By: popsakov
Louis Armstrong - Hot Five & Hot Seven: West End Blues 1926-1928 (1991)

Louis Armstrong - Hot Five & Hot Seven: West End Blues 1926-1928 (1991)
EAC Rip | FLAC (Tracks) + Cue + m3u + Log ~ 257 Mb | MP3 CBR320 ~ 148 Mb
Scans Included (PNG, 300 dpi) | RAR 5% Recovery
Jazz, Dixieland | Jazz Roots #CD 56010

Louis Armstrong was the first important soloist to emerge in jazz, and he became the most influential musician in the music's history. As a trumpet virtuoso, his playing, beginning with the 1920s studio recordings made with his Hot Five and Hot Seven ensembles, charted a future for jazz in highly imaginative, emotionally charged improvisation. For this, he is revered by jazz fans. But Armstrong also became an enduring figure in popular music, due to his distinctively phrased bass singing and engaging personality, which were on display in a series of vocal recordings and film roles.

***************

Louis Armstrong - Hot Five & Hot Seven: West End Blues 1926-1928 (1991)

Louis Armstrong - Hot Five & Hot Seven: West End Blues 1926-1928 (1991)

Track List:

01. West End Blues [3:18]
02. Alligator Crawl [3:03]
03. Melancholy Blues [3:04]
04. Willie The Weeper [3:13]
05. Ory's Creole Trombone [3:08]
06. Struttin' With Some Barbecue [3:00]
07. Hotter Than That [2:59]
08. Potato Head Blues [3:03]
09. Keyhole Blues [3:36]
10. Savoy Blues [3:24]
11. Basin Street Blues [3:16]
12. Weary Blues [3:05]
13. Wild Man Blues [3:15]
14. S.O.L. Blues [2:57]
15. Skid-Dat-De-Dat [3:14]
16. Muskrat Ramble [2:38]
17. Cornet Shop Suey [3:07]
18. A Monday Date [3:11]

Exact Audio Copy V1.3 from 2. September 2016

EAC extraction logfile from 14. April 2018, 14:52

Louis Armstrong Hot Five & Hot Seven / West End Blues 1926 - 1928

Used drive : HL-DT-STDVDRAM GH24NSB0 Adapter: 1 ID: 0

Read mode : Secure
Utilize accurate stream : Yes
Defeat audio cache : Yes
Make use of C2 pointers : No

Read offset correction : 6
Overread into Lead-In and Lead-Out : No
Fill up missing offset samples with silence : Yes
Delete leading and trailing silent blocks : No
Null samples used in CRC calculations : Yes
Used interface : Native Win32 interface for Win NT & 2000
Gap handling : Appended to previous track

Used output format : User Defined Encoder
Selected bitrate : 1024 kBit/s
Quality : High
Add ID3 tag : No
Command line compressor : C:\Program Files (x86)\Exact Audio Copy\FLAC\FLAC.EXE
Additional command line options : -V -8 -T "Genre=%genre%" -T "Artist=%artist%" -T "Title=%title%" -T "Album=%albumtitle%" -T "Date=%year%" -T "Tracknumber=%tracknr%" -T "Comment=%comment%" %source%


TOC of the extracted CD

Track | Start | Length | Start sector | End sector
––––––––––––––––––––––––––––-
1 | 0:00.00 | 3:18.47 | 0 | 14896
2 | 3:18.47 | 3:03.15 | 14897 | 28636
3 | 6:21.62 | 3:05.35 | 28637 | 42546
4 | 9:27.22 | 3:13.50 | 42547 | 57071
5 | 12:40.72 | 3:08.63 | 57072 | 71234
6 | 15:49.60 | 3:01.12 | 71235 | 84821
7 | 18:50.72 | 2:59.18 | 84822 | 98264
8 | 21:50.15 | 3:03.20 | 98265 | 112009
9 | 24:53.35 | 3:38.37 | 112010 | 128396
10 | 28:31.72 | 3:24.58 | 128397 | 143754
11 | 31:56.55 | 3:16.22 | 143755 | 158476
12 | 35:13.02 | 3:06.15 | 158477 | 172441
13 | 38:19.17 | 3:16.05 | 172442 | 187146
14 | 41:35.22 | 2:57.43 | 187147 | 200464
15 | 44:32.65 | 3:14.47 | 200465 | 215061
16 | 47:47.37 | 2:38.08 | 215062 | 226919
17 | 50:25.45 | 3:08.02 | 226920 | 241021
18 | 53:33.47 | 3:10.70 | 241022 | 255341


Track 1

Filename D:\Music\MG rips\Louis Armstrong Hot Five & Hot Seven - West End Blues 1926-1928 - 1991 (SAAR) [FLAC]\01 - West End Blues.wav

Pre-gap length 0:00:02.00

Peak level 79.4 %
Extraction speed 1.0 X
Track quality 100.0 %
Test CRC A360EA2A
Copy CRC A360EA2A
Accurately ripped (confidence 3) [C02DD975] (AR v2)
Copy OK

Track 2

Filename D:\Music\MG rips\Louis Armstrong Hot Five & Hot Seven - West End Blues 1926-1928 - 1991 (SAAR) [FLAC]\02 - Alligator Crawl.wav

Pre-gap length 0:00:00.40

Peak level 63.5 %
Extraction speed 1.0 X
Track quality 100.0 %
Test CRC 417766DF
Copy CRC 417766DF
Accurately ripped (confidence 3) [15C20C09] (AR v2)
Copy OK

Track 3

Filename D:\Music\MG rips\Louis Armstrong Hot Five & Hot Seven - West End Blues 1926-1928 - 1991 (SAAR) [FLAC]\03 - Melancholy Blues.wav

Pre-gap length 0:00:00.25

Peak level 80.7 %
Extraction speed 1.1 X
Track quality 100.0 %
Test CRC 2DE73A91
Copy CRC 2DE73A91
Accurately ripped (confidence 3) [ABEFC566] (AR v2)
Copy OK

Track 4

Filename D:\Music\MG rips\Louis Armstrong Hot Five & Hot Seven - West End Blues 1926-1928 - 1991 (SAAR) [FLAC]\04 - Willie The Weeper.wav

Pre-gap length 0:00:01.02

Peak level 70.5 %
Extraction speed 1.2 X
Track quality 100.0 %
Test CRC 94705E09
Copy CRC 94705E09
Accurately ripped (confidence 3) [FA1AF002] (AR v2)
Copy OK

Track 5

Filename D:\Music\MG rips\Louis Armstrong Hot Five & Hot Seven - West End Blues 1926-1928 - 1991 (SAAR) [FLAC]\05 - Ory's Creole Trombone.wav

Pre-gap length 0:00:00.65

Peak level 79.3 %
Extraction speed 1.3 X
Track quality 100.0 %
Test CRC 6EF89550
Copy CRC 6EF89550
Accurately ripped (confidence 3) [FACE157E] (AR v2)
Copy OK

Track 6

Filename D:\Music\MG rips\Louis Armstrong Hot Five & Hot Seven - West End Blues 1926-1928 - 1991 (SAAR) [FLAC]\06 - Struttin' With Some Barbecue.wav

Pre-gap length 0:00:00.43

Peak level 72.4 %
Extraction speed 1.3 X
Track quality 100.0 %
Test CRC 8AD3141A
Copy CRC 8AD3141A
Accurately ripped (confidence 3) [FD2943C7] (AR v2)
Copy OK

Track 7

Filename D:\Music\MG rips\Louis Armstrong Hot Five & Hot Seven - West End Blues 1926-1928 - 1991 (SAAR) [FLAC]\07 - Hotter Than That.wav

Pre-gap length 0:00:00.62

Peak level 66.1 %
Extraction speed 1.4 X
Track quality 100.0 %
Test CRC C308FBFF
Copy CRC C308FBFF
Accurately ripped (confidence 3) [579D7E5E] (AR v2)
Copy OK

Track 8

Filename D:\Music\MG rips\Louis Armstrong Hot Five & Hot Seven - West End Blues 1926-1928 - 1991 (SAAR) [FLAC]\08 - Potato Head Blues.wav

Pre-gap length 0:00:00.20

Peak level 79.9 %
Extraction speed 1.2 X
Track quality 99.9 %
Test CRC 8A2F202F
Copy CRC 8A2F202F
Accurately ripped (confidence 3) [5574EC72] (AR v2)
Copy OK

Track 9

Filename D:\Music\MG rips\Louis Armstrong Hot Five & Hot Seven - West End Blues 1926-1928 - 1991 (SAAR) [FLAC]\09 - Keyhole Blues.wav

Pre-gap length 0:00:00.33

Peak level 71.5 %
Extraction speed 1.6 X
Track quality 100.0 %
Test CRC 2E0E12B2
Copy CRC 2E0E12B2
Accurately ripped (confidence 3) [EAF2F26E] (AR v2)
Copy OK

Track 10

Filename D:\Music\MG rips\Louis Armstrong Hot Five & Hot Seven - West End Blues 1926-1928 - 1991 (SAAR) [FLAC]\10 - Savoy Blues.wav

Pre-gap length 0:00:02.52

Peak level 72.2 %
Extraction speed 1.6 X
Track quality 100.0 %
Test CRC 752498DC
Copy CRC 752498DC
Accurately ripped (confidence 3) [F7D63F0E] (AR v2)
Copy OK

Track 11

Filename D:\Music\MG rips\Louis Armstrong Hot Five & Hot Seven - West End Blues 1926-1928 - 1991 (SAAR) [FLAC]\11 - Basin Street Blues.wav

Pre-gap length 0:00:00.38

Peak level 67.3 %
Extraction speed 1.7 X
Track quality 100.0 %
Test CRC 2B81B2F4
Copy CRC 2B81B2F4
Accurately ripped (confidence 3) [0D8A8442] (AR v2)
Copy OK

Track 12

Filename D:\Music\MG rips\Louis Armstrong Hot Five & Hot Seven - West End Blues 1926-1928 - 1991 (SAAR) [FLAC]\12 - Weary Blues.wav

Pre-gap length 0:00:00.57

Peak level 62.0 %
Extraction speed 1.7 X
Track quality 100.0 %
Test CRC B61B5902
Copy CRC B61B5902
Accurately ripped (confidence 3) [738C17EC] (AR v2)
Copy OK

Track 13

Filename D:\Music\MG rips\Louis Armstrong Hot Five & Hot Seven - West End Blues 1926-1928 - 1991 (SAAR) [FLAC]\13 - Wild Man Blues.wav

Pre-gap length 0:00:01.05

Peak level 65.4 %
Extraction speed 1.8 X
Track quality 100.0 %
Test CRC 4F21551B
Copy CRC 4F21551B
Accurately ripped (confidence 3) [37214604] (AR v2)
Copy OK

Track 14

Filename D:\Music\MG rips\Louis Armstrong Hot Five & Hot Seven - West End Blues 1926-1928 - 1991 (SAAR) [FLAC]\14 - S.O.L. Blues.wav

Pre-gap length 0:00:00.47

Peak level 78.5 %
Extraction speed 1.8 X
Track quality 100.0 %
Test CRC 1E2C1825
Copy CRC 1E2C1825
Accurately ripped (confidence 3) [DBC97318] (AR v2)
Copy OK

Track 15

Filename D:\Music\MG rips\Louis Armstrong Hot Five & Hot Seven - West End Blues 1926-1928 - 1991 (SAAR) [FLAC]\15 - Skid-Dat-De-Dat.wav

Pre-gap length 0:00:00.43

Peak level 53.9 %
Extraction speed 1.9 X
Track quality 100.0 %
Test CRC 652769E1
Copy CRC 652769E1
Accurately ripped (confidence 3) [28F546A7] (AR v2)
Copy OK

Track 16

Filename D:\Music\MG rips\Louis Armstrong Hot Five & Hot Seven - West End Blues 1926-1928 - 1991 (SAAR) [FLAC]\16 - Muskrat Ramble.wav

Pre-gap length 0:00:00.62

Peak level 61.7 %
Extraction speed 1.8 X
Track quality 100.0 %
Test CRC 9DF68CA9
Copy CRC 9DF68CA9
Accurately ripped (confidence 3) [6D3CE7BE] (AR v2)
Copy OK

Track 17

Filename D:\Music\MG rips\Louis Armstrong Hot Five & Hot Seven - West End Blues 1926-1928 - 1991 (SAAR) [FLAC]\17 - Cornet Shop Suey.wav

Pre-gap length 0:00:00.25

Peak level 67.6 %
Extraction speed 1.9 X
Track quality 100.0 %
Test CRC 1DE13F40
Copy CRC 1DE13F40
Accurately ripped (confidence 3) [0D3DB392] (AR v2)
Copy OK

Track 18

Filename D:\Music\MG rips\Louis Armstrong Hot Five & Hot Seven - West End Blues 1926-1928 - 1991 (SAAR) [FLAC]\18 - A Monday Date.wav

Pre-gap length 0:00:00.70

Peak level 68.3 %
Extraction speed 1.7 X
Track quality 99.9 %
Test CRC C7206EB1
Copy CRC C7206EB1
Accurately ripped (confidence 3) [49BC1359] (AR v2)
Copy OK


All tracks accurately ripped

No errors occurred

End of status report

==== Log checksum AC897AA68A8C6EDCE175C3EEA34D0DD00E3AE930AC42DDC6DC67A03DF3A3B68B ====

foobar2000 1.3.16 / Dynamic Range Meter 1.1.1
log date: 2018-05-07 16:10:54

––––––––––––––––––––––––––––––––––––––––
Analyzed: Louis Armstrong Hot Five & Hot Seven / West End Blues 1926 - 1928
––––––––––––––––––––––––––––––––––––––––

DR Peak RMS Duration Track
––––––––––––––––––––––––––––––––––––––––
DR13 -2.00 dB -19.45 dB 3:19 01-West End Blues
DR13 -3.94 dB -19.37 dB 3:03 02-Alligator Crawl
DR12 -1.85 dB -17.47 dB 3:05 03-Melancholy Blues
DR12 -3.03 dB -17.41 dB 3:14 04-Willie The Weeper
DR12 -2.01 dB -16.89 dB 3:09 05-Ory's Creole Trombone
DR11 -2.80 dB -16.14 dB 3:01 06-Struttin' With Some Barbecue
DR14 -3.59 dB -20.52 dB 2:59 07-Hotter Than That
DR11 -1.94 dB -15.85 dB 3:03 08-Potato Head Blues
DR11 -2.91 dB -16.72 dB 3:38 09-Keyhole Blues
DR12 -2.83 dB -17.79 dB 3:25 10-Savoy Blues
DR10 -3.43 dB -16.78 dB 3:16 11-Basin Street Blues
DR13 -4.15 dB -19.97 dB 3:06 12-Weary Blues
DR10 -3.69 dB -18.07 dB 3:16 13-Wild Man Blues
DR12 -2.09 dB -17.24 dB 2:58 14-S.O.L. Blues
DR11 -5.35 dB -21.01 dB 3:15 15-Skid-Dat-De-Dat
DR11 -4.19 dB -17.46 dB 2:38 16-Muskrat Ramble
DR11 -3.39 dB -17.30 dB 3:08 17-Cornet Shop Suey
DR13 -3.31 dB -20.32 dB 3:11 18-A Monday Date
––––––––––––––––––––––––––––––––––––––––

Number of tracks: 18
Official DR value: DR12

Samplerate: 44100 Hz
Channels: 2
Bits per sample: 16
Bitrate: 581 kbps
Codec: FLAC
================================================================================

[CUETools log; Date: 07.05.2018 16:09:41; Version: 2.1.6]
[CTDB TOCID: e7HA.j5ejxahA69JPe0mJ7Rq.1o-] found.
Track | CTDB Status
1 | (5/6) Accurately ripped
2 | (5/6) Accurately ripped
3 | (5/6) Accurately ripped
4 | (5/6) Accurately ripped
5 | (5/6) Accurately ripped
6 | (5/6) Accurately ripped
7 | (5/6) Accurately ripped
8 | (5/6) Accurately ripped
9 | (5/6) Accurately ripped
10 | (5/6) Accurately ripped
11 | (5/6) Accurately ripped
12 | (5/6) Accurately ripped
13 | (5/6) Accurately ripped
14 | (5/6) Accurately ripped
15 | (5/6) Accurately ripped
16 | (5/6) Accurately ripped
17 | (5/6) Accurately ripped
18 | (5/6) Accurately ripped
[AccurateRip ID: 00253572-01f013d4-ec0d4c12] found.
Track [ CRC | V2 ] Status
01 [18612aeb|c02dd975] (0+3/3) Accurately ripped
02 [835a14ff|15c20c09] (0+3/3) Accurately ripped
03 [f5cc8776|abefc566] (0+3/3) Accurately ripped
04 [95a643bb|fa1af002] (0+3/3) Accurately ripped
05 [076534c2|face157e] (0+3/3) Accurately ripped
06 [93bc30ba|fd2943c7] (0+3/3) Accurately ripped
07 [49e0f94a|579d7e5e] (0+3/3) Accurately ripped
08 [4cf03a05|5574ec72] (0+3/3) Accurately ripped
09 [2bc186fc|eaf2f26e] (0+3/3) Accurately ripped
10 [6bff6fe0|f7d63f0e] (0+3/3) Accurately ripped
11 [0011db8c|0d8a8442] (0+3/3) Accurately ripped
12 [75f17afe|738c17ec] (0+3/3) Accurately ripped
13 [93444bdf|37214604] (0+3/3) Accurately ripped
14 [8d886d74|dbc97318] (0+3/3) Accurately ripped
15 [1bdf9b2b|28f546a7] (0+3/3) Accurately ripped
16 [8fe92c8d|6d3ce7be] (0+3/3) Accurately ripped
17 [2eb471ee|0d3db392] (0+3/3) Accurately ripped
18 [672e2346|49bc1359] (0+3/3) Accurately ripped

Track Peak [ CRC32 ] [W/O NULL] [ LOG ]
– 80,7 [5A9758DF] [7328EF84]
01 79,4 [A360EA2A] [31571708] CRC32
02 63,5 [417766DF] [78914C13] CRC32
03 80,7 [2DE73A91] [38232E02] CRC32
04 70,5 [94705E09] [F4F6D234] CRC32
05 79,3 [6EF89550] [A4167DE1] CRC32
06 72,4 [8AD3141A] [6A1A7C6A] CRC32
07 66,1 [C308FBFF] [DEB53657] CRC32
08 79,9 [8A2F202F] [2343BB88] CRC32
09 71,5 [2E0E12B2] [BB6585F5] CRC32
10 72,2 [752498DC] [5FEF6F64] CRC32
11 67,3 [2B81B2F4] [3EFD2CB3] CRC32
12 62,0 [B61B5902] [9D585A41] CRC32
13 65,4 [4F21551B] [48BFF15C] CRC32
14 78,5 [1E2C1825] [6A404760] CRC32
15 53,9 [652769E1] [25E1F568] CRC32
16 61,7 [9DF68CA9] [CEFF454A] CRC32
17 67,6 [1DE13F40] [7E2FB985] CRC32
18 68,3 [C7206EB1] [CFDD98DF] CRC32

Louis Armstrong - Hot Five & Hot Seven: West End Blues 1926-1928 (1991)

All thanks go to Musicgate

>>> My Blog <<<

Download from icerbox.com: