Subcategories

Louis Prima - The Wildest! (1956) [2000, DCC Compact Classics]

Posted By: jclane
Louis Prima - The Wildest! (1956) [2000, DCC Compact Classics]

Louis Prima – The Wildest!
XLD Rip | FLAC Tracks + Cue + Log | Complete Scans Included | 195 MB
MP3 CBR @320 kbps (LAME 3.99) | Joint Stereo | 87 MB
DCC Compact Classics / EMI-Capitol | DZS-184 | Vocal Jazz, Swing

A veritable greatest-hits album, The Wildest! is the gem of Louis Prima's catalogue. None of his other efforts transcend its raunchy mix of demented gibberish, blaring sax, and explosive swing, which rocked as hard as anything released at the time. Almost all of Prima's signature songs are found here: "Just a Gigolo/I Ain't Got Nobody," "Oh Marie," "Jump, Jive, an' Wail," and "Buona Sera," to name a few. A plethora of greatest-hits packages (especially Capitol's Collectors Series) may offer wider song selection and greater value, but the reissue of Prima's masterpiece is a welcome event that's been a long time coming.

Track Listing:

01. Medley: Just A Gigolo / I Ain't Got Nobody - 4:49
02. (Nothing's Too Good) For My Baby - 2:43
03. The Lip - 2:23
04. Body And Soul - 3:29
05. Oh Marie - 2:35
06. Medley: Basin Street Blues / When It's Sleepy Time Down South - 4:19
07. Jump, Jive, An' Wail - 3:33
08. Buono Sera - 3:04
09. Night Train - 2:52
10. I'll Be Glad When You're Dead, You Rascal You - 3:14


X Lossless Decoder version 20121222 (142.2)

XLD extraction logfile from 2013-01-20 11:29:25 -0600

Louis Prima / The Wildest!

Used drive : PIONEER DVD-RW DVR-115D (revision 1.13)
Media type : Pressed CD

Ripper mode : XLD Secure Ripper
Disable audio cache : OK for the drive with a cache less than 1375KiB
Make use of C2 pointers : NO
Read offset correction : 48
Max retry count : 20
Gap status : Analyzed, Appended

TOC of the extracted CD
Track | Start | Length | Start sector | End sector
––––––––––––––––––––––––––––-
1 | 00:00:32 | 04:49:00 | 32 | 21706
2 | 04:49:32 | 02:43:00 | 21707 | 33931
3 | 07:32:32 | 02:23:00 | 33932 | 44656
4 | 09:55:32 | 03:29:00 | 44657 | 60331
5 | 13:24:32 | 02:35:00 | 60332 | 71956
6 | 15:59:32 | 04:19:00 | 71957 | 91381
7 | 20:18:32 | 03:33:00 | 91382 | 107356
8 | 23:51:32 | 03:04:00 | 107357 | 121156
9 | 26:55:32 | 02:52:00 | 121157 | 134056
10 | 29:47:32 | 03:14:00 | 134057 | 148606

AccurateRip Summary (DiscID: 000cbe69-00650916-8607bd0a)
Track 01 : OK (v1+v2, confidence 8/8)
Track 02 : OK (v1+v2, confidence 7/7)
Track 03 : OK (v1+v2, confidence 7/7)
Track 04 : OK (v1+v2, confidence 7/7)
Track 05 : OK (v1+v2, confidence 7/7)
Track 06 : OK (v1+v2, confidence 7/7)
Track 07 : OK (v1+v2, confidence 7/7)
Track 08 : OK (v1+v2, confidence 7/7)
Track 09 : OK (v1+v2, confidence 7/7)
Track 10 : OK (v1+v2, confidence 7/7)
->All tracks accurately ripped.

All Tracks
Album gain : -3.25 dB
Peak : 1.000000
Statistics
Read error : 0
Jitter error (maybe fixed) : 0
Retry sector count : 0
Damaged sector count : 0

Track 01
Filename : /Users/home/Documents/Downloads/Louis Prima the Wildest! DCC/01 Louis Prima - Medleyпјљ Just a Gigolo; I Ain't Got Nobody.flac
Pre-gap length : 00:02:32

Track gain : -5.37 dB
Peak : 0.849396
CRC32 hash (test run) : 7501ABD0
CRC32 hash : 7501ABD0
CRC32 hash (skip zero) : CBCE246E
AccurateRip v1 signature : D51A03C3
AccurateRip v2 signature : CA4EB4E8
->Accurately ripped (v1+v2, confidence 6+2/8)
Statistics
Read error : 0
Jitter error (maybe fixed) : 0
Retry sector count : 0
Damaged sector count : 0

Track 02
Filename : /Users/home/Documents/Downloads/Louis Prima the Wildest! DCC/02 Louis Prima - Nothing's Too Good for My Baby.flac

Track gain : -3.08 dB
Peak : 1.000000
CRC32 hash (test run) : EFF1F794
CRC32 hash : EFF1F794
CRC32 hash (skip zero) : A6A0F6A8
AccurateRip v1 signature : 956C2CA4
AccurateRip v2 signature : 2D6F3ACC
->Accurately ripped (v1+v2, confidence 5+2/7)
Statistics
Read error : 0
Jitter error (maybe fixed) : 0
Retry sector count : 0
Damaged sector count : 0

Track 03
Filename : /Users/home/Documents/Downloads/Louis Prima the Wildest! DCC/03 Louis Prima - The Lip.flac

Track gain : -3.01 dB
Peak : 0.968842
CRC32 hash (test run) : 327D86EC
CRC32 hash : 327D86EC
CRC32 hash (skip zero) : 893CDC7B
AccurateRip v1 signature : AFC58C8F
AccurateRip v2 signature : 4AEC0582
->Accurately ripped (v1+v2, confidence 5+2/7)
Statistics
Read error : 0
Jitter error (maybe fixed) : 0
Retry sector count : 0
Damaged sector count : 0

Track 04
Filename : /Users/home/Documents/Downloads/Louis Prima the Wildest! DCC/04 Louis Prima - Body and Soul.flac

Track gain : 0.39 dB
Peak : 0.838623
CRC32 hash (test run) : E147A870
CRC32 hash : E147A870
CRC32 hash (skip zero) : 0B996B01
AccurateRip v1 signature : 0F4CFD82
AccurateRip v2 signature : C2492C7A
->Accurately ripped (v1+v2, confidence 5+2/7)
Statistics
Read error : 0
Jitter error (maybe fixed) : 0
Retry sector count : 0
Damaged sector count : 0

Track 05
Filename : /Users/home/Documents/Downloads/Louis Prima the Wildest! DCC/05 Louis Prima - Oh Marie.flac

Track gain : -2.69 dB
Peak : 0.817841
CRC32 hash (test run) : 0EA6D11E
CRC32 hash : 0EA6D11E
CRC32 hash (skip zero) : 79BC3032
AccurateRip v1 signature : 5FFE6EB6
AccurateRip v2 signature : E3ECF75D
->Accurately ripped (v1+v2, confidence 5+2/7)
Statistics
Read error : 0
Jitter error (maybe fixed) : 0
Retry sector count : 0
Damaged sector count : 0

Track 06
Filename : /Users/home/Documents/Downloads/Louis Prima the Wildest! DCC/06 Louis Prima - When It's Sleepy Time Down South.flac

Track gain : -1.51 dB
Peak : 0.863373
CRC32 hash (test run) : 923FA42D
CRC32 hash : 923FA42D
CRC32 hash (skip zero) : B53688E1
AccurateRip v1 signature : 1B419B34
AccurateRip v2 signature : 9971C726
->Accurately ripped (v1+v2, confidence 5+2/7)
Statistics
Read error : 0
Jitter error (maybe fixed) : 0
Retry sector count : 0
Damaged sector count : 0

Track 07
Filename : /Users/home/Documents/Downloads/Louis Prima the Wildest! DCC/07 Louis Prima - Jump Jive an Wail.flac

Track gain : -3.32 dB
Peak : 0.880920
CRC32 hash (test run) : 3A8E3814
CRC32 hash : 3A8E3814
CRC32 hash (skip zero) : 14EA0D62
AccurateRip v1 signature : 20790C40
AccurateRip v2 signature : 59382C83
->Accurately ripped (v1+v2, confidence 5+2/7)
Statistics
Read error : 0
Jitter error (maybe fixed) : 0
Retry sector count : 0
Damaged sector count : 0

Track 08
Filename : /Users/home/Documents/Downloads/Louis Prima the Wildest! DCC/08 Louis Prima - Buona Sera.flac

Track gain : -1.55 dB
Peak : 0.776001
CRC32 hash (test run) : 5A256BE1
CRC32 hash : 5A256BE1
CRC32 hash (skip zero) : A6D4811F
AccurateRip v1 signature : 4694A6AF
AccurateRip v2 signature : 52B25970
->Accurately ripped (v1+v2, confidence 5+2/7)
Statistics
Read error : 0
Jitter error (maybe fixed) : 0
Retry sector count : 0
Damaged sector count : 0

Track 09
Filename : /Users/home/Documents/Downloads/Louis Prima the Wildest! DCC/09 Louis Prima - Night Train.flac

Track gain : -0.20 dB
Peak : 0.686310
CRC32 hash (test run) : FBFD5466
CRC32 hash : FBFD5466
CRC32 hash (skip zero) : C10F1B1A
AccurateRip v1 signature : 6C1113B8
AccurateRip v2 signature : AA3F5C0A
->Accurately ripped (v1+v2, confidence 5+2/7)
Statistics
Read error : 0
Jitter error (maybe fixed) : 0
Retry sector count : 0
Damaged sector count : 0

Track 10
Filename : /Users/home/Documents/Downloads/Louis Prima the Wildest! DCC/10 Louis Prima - I'll Be Glad When You're Dead You Rascal You.flac

Track gain : -3.14 dB
Peak : 0.876038
CRC32 hash (test run) : 79C0999A
CRC32 hash : 79C0999A
CRC32 hash (skip zero) : ECB57356
AccurateRip v1 signature : C7D60EE9
AccurateRip v2 signature : FB87DF04
->Accurately ripped (v1+v2, confidence 5+2/7)
Statistics
Read error : 0
Jitter error (maybe fixed) : 0
Retry sector count : 0
Damaged sector count : 0

No errors occurred

End of status report



[CUETools log; Date: 06/02/2013 22:22:18; Version: 2.1.4]
Pregap length 00:00:32.
[AccurateRip ID: 000cbe69-00650916-8607bd0a] found.
Track [ CRC | V2 ] Status
01 [d51a03c3|ca4eb4e8] (6+2/8) Accurately ripped
02 [956c2ca4|2d6f3acc] (5+2/7) Accurately ripped
03 [afc58c8f|4aec0582] (5+2/7) Accurately ripped
04 [0f4cfd82|c2492c7a] (5+2/7) Accurately ripped
05 [5ffe6eb6|e3ecf75d] (5+2/7) Accurately ripped
06 [1b419b34|9971c726] (5+2/7) Accurately ripped
07 [20790c40|59382c83] (5+2/7) Accurately ripped
08 [4694a6af|52b25970] (5+2/7) Accurately ripped
09 [6c1113b8|aa3f5c0a] (5+2/7) Accurately ripped
10 [c7d60ee9|fb87df04] (5+2/7) Accurately ripped

Track Peak [ CRC32 ] [W/O NULL]
– 100,0 [1D7BB45D] [4149A848]
01 84,9 [7501ABD0] [CBCE246E]
02 100,0 [EFF1F794] [A6A0F6A8]
03 96,8 [327D86EC] [893CDC7B]
04 83,8 [E147A870] [0B996B01]
05 81,7 [0EA6D11E] [79BC3032]
06 86,3 [923FA42D] [B53688E1]
07 88,0 [3A8E3814] [14EA0D62]
08 77,6 [5A256BE1] [A6D4811F]
09 68,6 [FBFD5466] [C10F1B1A]
10 87,6 [79C0999A] [ECB57356]


Original Released Date: January, 1957
CD Released Date: 2000 by DCC Compact Classics
Format: CD, Compilation
Length: 33:01

Louis Prima - The Wildest! (1956) [2000, DCC Compact Classics]
Louis Prima - The Wildest! (1956) [2000, DCC Compact Classics]

******************************************************

Many Thanks to What & papa1954

The files are interchangeable!
Uploaded
Lossless | MP3

Depositfiles
Lossless | MP3

Rapidgator
Lossless | MP3


pw: www.AvaxHome.ru