Subcategories

Louisiana Red & Little Victor's Juke Joint - Memphis Mojo (2011)

Posted By: popsakov
Louisiana Red & Little Victor's Juke Joint - Memphis Mojo (2011)

Louisiana Red & Little Victor's Juke Joint - Memphis Mojo (2011)
EAC Rip | FLAC (Img) + Cue + Log ~ 236 Mb | MP3 CBR320 ~ 120 Mb
Scans Included | RAR 5% Recovery
Electric Blues | Ruf Records #RUF 1171

Louisiana Red (born Iverson Minter) was a flamboyant guitarist, harmonica player, and vocalist. He lost his parents early in life through multiple tragedies; his mother died of pneumonia a week after his birth, and his father was lynched by the Klu Klux Klan when he was five. Red began recording for Chess in 1949, then joined the Army. After his discharge, he played with John Lee Hooker in Detroit for almost two years in the late '50s, and continued through the '60s and '70s with recording sessions for Chess, Checker, Atlas, Glover, Roulette, L&R, and Tomato, among others.

Louisiana Red moved to Hanover, Germany in 1981, and maintained a busy recording and performing schedule through the subsequent decades into the new millennium, his 21st century releases including 2001's Driftin' on Earwig, 2002's A Different Shade of Red on Severn, 2004's Bad Case of the Blues on Mojo Tone, 2005's No Turn on Red on Hightone and Hot Sauce on Red Lightnin', and 2008's Back to the Black Bayou (recorded in Norway with producer/guitarist Little Victor) on Ruf. He died in Germany in 2012 when his thyroid imbalance brought on a stroke.

~ Ron Wynn, All Music

***************

Louisiana Red & Little Victor's Juke Joint - Memphis Mojo (2011)

Louisiana Red & Little Victor's Juke Joint - Memphis Mojo (2011)

Track List:

01. Goodbye Blues [0:03:49.23]
02. I Had Troubles All My Life [0:04:02.64]
03. See That My Grave Is Kept Clean [0:03:49.19]
04. No More Whiskey [0:03:43.19]
05. Yolanda [0:03:59.09]
06. Just Take Your Time [0:02:57.47]
07. Your Lovin Man [0:02:54.29]
08. Boogie Woogie Boogie [0:03:16.44]
09. Im Gettin Tired [0:04:39.44]
10. So Long, So Long [0:03:52.13]
11. Why Dont You Come On Home [0:02:55.74]
12. Grandmothers Death [0:04:33.07]

Exact Audio Copy V1.0 beta 3 from 29. August 2011

Отчёт EAC об извлечении, выполненном 29. декабря 2014, 23:22

Louisiana Red / Memphis Mojo

Дисковод: PLEXTOR DVDR PX-880SA Adapter: 0 ID: 2

Режим чтения : Достоверность
Использование точного потока : Да
Отключение кэша аудио : Да
Использование указателей C2 : Нет

Коррекция смещения при чтении : 6
Способность читать области Lead-in и Lead-out : Нет
Заполнение пропущенных сэмплов тишиной : Да
Удаление блоков с тишиной в начале и конце : Нет
При вычислениях CRC использовались нулевые сэмплы : Да
Интерфейс : Встроенный Win32-интерфейс для Win NT/2000

Выходной формат : Внутренние WAV-операции
Формат сэмплов : 44.100 Гц; 16 бит; стерео


TOC извлечённого CD

Трек | Старт | Длительность | Начальный сектор | Конечный сектор
––––––––––––––––––––––––––––––––––-
1 | 0:00.00 | 3:49.23 | 0 | 17197
2 | 3:49.23 | 4:02.64 | 17198 | 35411
3 | 7:52.12 | 3:49.19 | 35412 | 52605
4 | 11:41.31 | 3:43.19 | 52606 | 69349
5 | 15:24.50 | 3:59.09 | 69350 | 87283
6 | 19:23.59 | 2:57.47 | 87284 | 100605
7 | 22:21.31 | 2:54.29 | 100606 | 113684
8 | 25:15.60 | 3:16.44 | 113685 | 128428
9 | 28:32.29 | 4:39.44 | 128429 | 149397
10 | 33:11.73 | 3:52.13 | 149398 | 166810
11 | 37:04.11 | 2:55.74 | 166811 | 180009
12 | 40:00.10 | 4:33.07 | 180010 | 200491


Характеристики диапазона извлечения и сообщения об ошибках

Выбранный диапазон

Имя файла M:\СВОИ\Louisiana Red - Memphis Mojo - 2011\Louisiana Red - Memphis Mojo.wav

Пиковый уровень 99.6 %
Скорость извлечения 8.1 X
Качество диапазона 100.0 %
CRC теста 67DA498B
CRC копии 67DA498B
Копирование… OK

Ошибок не произошло


AccurateRip: сводка

Трек 1 : извлечено точно (доверие 5) [88AD8EA4] (AR v2)
Трек 2 : извлечено точно (доверие 5) [6FDCA552] (AR v2)
Трек 3 : извлечено точно (доверие 5) [DB688351] (AR v2)
Трек 4 : извлечено точно (доверие 5) [B9B14063] (AR v2)
Трек 5 : извлечено точно (доверие 5) [C6D26F92] (AR v2)
Трек 6 : извлечено точно (доверие 5) [4A6FB6AA] (AR v2)
Трек 7 : извлечено точно (доверие 5) [ADA367BE] (AR v2)
Трек 8 : извлечено точно (доверие 5) [32B6E2FB] (AR v2)
Трек 9 : извлечено точно (доверие 5) [4D4D03F4] (AR v2)
Трек 10 : извлечено точно (доверие 5) [F790B227] (AR v2)
Трек 11 : извлечено точно (доверие 5) [C2890B69] (AR v2)
Трек 12 : извлечено точно (доверие 5) [229EE3FD] (AR v2)

Все треки извлечены точно

Конец отчёта

==== Контрольная сумма отчёта CAE9644FD524D0FF1F156AD7D061E07E9549475F1FA2B85B6CCD30C604C4E29A ====

[CUETools log; Date: 12.02.2019 0:45:53; Version: 2.1.6]
[CTDB TOCID: lnddK4C7NDEy_tmmYQ4Ia37Qqt4-] found.
Track | CTDB Status
1 | (6/6) Accurately ripped
2 | (6/6) Accurately ripped
3 | (6/6) Accurately ripped
4 | (6/6) Accurately ripped
5 | (6/6) Accurately ripped
6 | (6/6) Accurately ripped
7 | (6/6) Accurately ripped
8 | (6/6) Accurately ripped
9 | (6/6) Accurately ripped
10 | (6/6) Accurately ripped
11 | (6/6) Accurately ripped
12 | (6/6) Accurately ripped
[AccurateRip ID: 0013db21-00b86cef-8f0a710c] found.
Track [ CRC | V2 ] Status
01 [36c15a30|88ad8ea4] (0+6/6) Accurately ripped
02 [9e37304d|6fdca552] (0+6/6) Accurately ripped
03 [dfc4544d|db688351] (0+6/6) Accurately ripped
04 [341da0bd|b9b14063] (0+6/6) Accurately ripped
05 [67ed6ceb|c6d26f92] (0+6/6) Accurately ripped
06 [df415e2d|4a6fb6aa] (0+6/6) Accurately ripped
07 [acb7d0ee|ada367be] (0+6/6) Accurately ripped
08 [ef3d40b3|32b6e2fb] (0+6/6) Accurately ripped
09 [d60c55a3|4d4d03f4] (0+6/6) Accurately ripped
10 [e285e607|f790b227] (0+6/6) Accurately ripped
11 [faa4fcaa|c2890b69] (0+6/6) Accurately ripped
12 [b9a1a9b6|229ee3fd] (0+6/6) Accurately ripped

Track Peak [ CRC32 ] [W/O NULL] [ LOG ]
– 99,6 [67DA498B] [AEA0A730] CRC32
01 94,2 [B0FA8597] [131D1AEF]
02 87,2 [54FF9CAE] [96F12F4D]
03 90,0 [C0BA2B5D] [30805428]
04 85,3 [DB7EA2FA] [C28B6732]
05 97,4 [5DDDB7FC] [7B74668C]
06 94,7 [0BE999CE] [A909427F]
07 80,1 [2F430D5F] [4757F455]
08 87,2 [1B00FF8B] [74F6C9FE]
09 90,5 [9173D910] [9E6EE3FB]
10 99,6 [5B9EBD3E] [56A6B439]
11 99,6 [4CF29159] [50358A80]
12 82,0 [BFB0967F] [EE80BA31]

Louisiana Red & Little Victor's Juke Joint - Memphis Mojo (2011)

All thanks go to DMITRYMINANDER

>>> My Blog <<<

Download from icerbox.com: