Subcategories

VA - Love Is the Song We Sing: San Francisco Nuggets 1965–1970 (2007)

Posted By: mook45
VA - Love Is the Song We Sing: San Francisco Nuggets 1965–1970 (2007)

VA - Love Is the Song We Sing: San Francisco Nuggets 1965–1970 (2007)
EAC | FLAC IMG,CUE+LOG = 1.37GB | 400 dpi Scans
Garage Rock/Pysch | Label: Rhino - R2 1655564 | FSo/FSe


Available here as MP3, here it is in lossless.

Track listing
Disc one

1. "Let's Get Together" - Dino Valenti – 3:00
2. "I Feel Like I'm Fixin' to Die Rag" - Country Joe & The Fish – 2:43
3. "You Were on My Mind" - We Five – 2:36
4. "Number One" - The Charlatans – 4:06
5. "Can't Come Down" - The Warlocks – 3:01
6. "Don't Talk to Strangers" - The Beau Brummels – 2:20
7. "Anything" - The Vejtables – 1:58
8. "It's No Secret" - Jefferson Airplane – 2:30
9. "Johnny Was a Good Boy" - Mystery Trend – 2:37
10. "Free Advice" - The Great Society – 2:06
11. "Mr. Jones (Ballad of a Thin Man)" - The Grass Roots – 2:55
12. "Stranger in a Strange Land" - Blackburn & Snow – 2:30
13. "Who Do You Love" - Quicksilver Messenger Service – 5:56
14. "She's My Baby" - The Mojo Men – 3:01
15. "Coffee Cup" - Wildflower – 2:18
16. "Live Your Own Life" - Family Tree – 2:54
17. "Fat City" - Sons of Champlin – 3:04
18. "Human Money" - Frantics – 2:09
19. "Bye Bye Bye" - The Tikis – 2:46
20. "Section 43" - Country Joe & the Fish – 6:44
21. "Hello Hello" - Sopwith Camel – 2:25

Disc two

1. Psychotic Reaction - Count Five
2. Got Love - The Front Line
3. Satisfaction Guaranteed - The Mourning Reign
4. Foolish Woman - The Oxford Circle
5. My Buddy Sin - The Stained Glass
6. Streetcar - The Otherside
7. Suzy Creamcheese - Teddy & His Patches
8. Rubiyat - The Immediate Family
9. Rumors - Syndicate of Sound
10. Sometimes I Wonder - The Harbinger Complex
11. Want Ad Reader - The New Breed
12. I'm a Good Woman - The Generation
13. No Way Out - The Chocolate Watchband
14. Hey I'm Lost - Butch Engle & The Styx
15. I Love You - People!
16. America - Public Nuisance
17. Fly To New York - Country Weather
18. Thing In 'E' - The Savage Resurrection
19. Hearts To Cry - Frumious Bandersnatch

Disc three

1. Alabama Bound - The Charlatans
2. Carl Street - The Mystery Trend
3. Somebody to Love - The Great Society
4. Superbird - Country Joe and the Fish
5. Two Days 'Till Tomorrow - The Beau Brummels
6. Omaha - Moby Grape
7. Up & Down - The Serpent Power
8. The Golden Road (To Unlimited Devotion) - Grateful Dead
9. Codine - Quicksilver Messenger Service
10. Down On Me - Big Brother and the Holding Company
11. Think Twice - Salvation
12. White Rabbit - Jefferson Airplane
13. Roll With It - Steve Miller Band
14. Why Did You Put Me On - Notes From The Underground
15. Underdog - Sly & The Family Stone
16. Summertime Blues - Blue Cheer
17. Glue - The Ace of Cups
18. Soul Sacrifice - Santana
19. The Bells - The Loading Zone

Disc four

1. Evil Ways - Santana
2. Red the Sign Post - Fifty Foot Hose
3. Lemonaide Kid - Kak
4. 1982-A - Sons of Champlin
5. How Can I Miss You When You Won't Go Away - Dan Hicks & His Hot Licks
6. Amphetamine Gazelle - Mad River
7. Quicksilver Girls - Steve Miller Band
8. Revolution - Mother Earth
9. Murder In My Heart For the Judge - Moby Grape
10. Light Your Windows - Quicksilver Messenger Service
11. I'm Drowning - The Flamin' Groovies
12. Portrait Of the Artists As a Young Lady - Seatrain
13. White Bird - It's a Beautiful Day
14. Dark Star - Grateful Dead
15. Fool - Blue Cheer
16. Mexico - Jefferson Airplane
17. Mercedes Benz - Janis Joplin
18. Get Together - The Youngbloods

Exact Audio Copy V0.99 prebeta 5 from 4. May 2009

EAC extraction logfile from 21. December 2009, 1:10

Various Artists / Love Is The Song We Sing: San Francisco Nuggets 1965-1970 (Disc 1: Seismic Rumbles))

Used drive : HP DVD Writer 1040r Adapter: 1 ID: 0

Read mode : Secure
Utilize accurate stream : Yes
Defeat audio cache : Yes
Make use of C2 pointers : No

Read offset correction : 6
Overread into Lead-In and Lead-Out : No
Fill up missing offset samples with silence : Yes
Delete leading and trailing silent blocks : No
Null samples used in CRC calculations : Yes
Used interface : Native Win32 interface for Win NT & 2000

Used output format : User Defined Encoder
Selected bitrate : 1024 kBit/s
Quality : High
Add ID3 tag : No
Command line compressor : C:\Program Files\Exact Audio Copy\FLAC\FLAC.EXE
Additional command line options : -5 -V -T "ARTIST=%a" -T "TITLE=%t" -T "ALBUM=%g" -T "DATE=%y" -T "TRACKNUMBER=%n" -T "GENRE=%m" -T "COMMENT=EAC Flac 1.1.2 -5" %s


TOC of the extracted CD

Track | Start | Length | Start sector | End sector
––––––––––––––––––––––––––––-
1 | 0:00.00 | 3:00.70 | 0 | 13569
2 | 3:00.70 | 2:43.39 | 13570 | 25833
3 | 5:44.34 | 2:36.69 | 25834 | 37602
4 | 8:21.28 | 4:06.35 | 37603 | 56087
5 | 12:27.63 | 3:01.35 | 56088 | 69697
6 | 15:29.23 | 2:20.64 | 69698 | 80261
7 | 17:50.12 | 1:58.22 | 80262 | 89133
8 | 19:48.34 | 2:30.02 | 89134 | 100385
9 | 22:18.36 | 2:37.08 | 100386 | 112168
10 | 24:55.44 | 2:06.47 | 112169 | 121665
11 | 27:02.16 | 2:55.09 | 121666 | 134799
12 | 29:57.25 | 2:30.16 | 134800 | 146065
13 | 32:27.41 | 5:56.37 | 146066 | 172802
14 | 38:24.03 | 3:01.49 | 172803 | 186426
15 | 41:25.52 | 2:18.25 | 186427 | 196801
16 | 43:44.02 | 2:54.33 | 196802 | 209884
17 | 46:38.35 | 3:04.02 | 209885 | 223686
18 | 49:42.37 | 2:09.15 | 223687 | 233376
19 | 51:51.52 | 2:46.00 | 233377 | 245826
20 | 54:37.52 | 6:44.26 | 245827 | 276152
21 | 61:22.03 | 2:25.10 | 276153 | 287037


Range status and errors

Selected range

Filename C:\Users\Mike3\Desktop\Nuggets\Love is the Song We Sing - San Francisco Nuggets 1965-1970 (Flac)\Disc 1 - Seismic Rumbles\Various Artists - Love Is The Song We Sing San Francisco Nuggets 1965-1970 (Disc 1 Seismic Rumbles)).wav

Peak level 99.7 %
Range quality 100.0 %
Copy CRC F7C0CE6E
Copy OK

No errors occurred


AccurateRip summary

Track 1 not present in database
Track 2 not present in database
Track 3 not present in database
Track 4 not present in database
Track 5 not present in database
Track 6 not present in database
Track 7 not present in database
Track 8 not present in database
Track 9 not present in database
Track 10 not present in database
Track 11 not present in database
Track 12 not present in database
Track 13 not present in database
Track 14 not present in database
Track 15 not present in database
Track 16 not present in database
Track 17 not present in database
Track 18 not present in database
Track 19 not present in database
Track 20 not present in database
Track 21 not present in database

None of the tracks are present in the AccurateRip database

End of status report


Exact Audio Copy V0.99 prebeta 5 from 4. May 2009

EAC extraction logfile from 19. November 2009, 23:03

Various Artists / Love Is the Song We Sing: San Francisco Nuggets 1965-1970 - Disc 2 of 4

Used drive : HP DVD Writer 1040r Adapter: 1 ID: 0

Read mode : Secure
Utilize accurate stream : Yes
Defeat audio cache : Yes
Make use of C2 pointers : Yes

Read offset correction : 6
Overread into Lead-In and Lead-Out : No
Fill up missing offset samples with silence : Yes
Delete leading and trailing silent blocks : No
Null samples used in CRC calculations : Yes
Used interface : Native Win32 interface for Win NT & 2000

Used output format : User Defined Encoder
Selected bitrate : 1024 kBit/s
Quality : High
Add ID3 tag : No
Command line compressor : C:\Program Files\Exact Audio Copy\FLAC\FLAC.EXE
Additional command line options : -5 -V -T "ARTIST=%a" -T "TITLE=%t" -T "ALBUM=%g" -T "DATE=%y" -T "TRACKNUMBER=%n" -T "GENRE=%m" -T "COMMENT=EAC Flac 1.1.2 -5" %s


TOC of the extracted CD

Track | Start | Length | Start sector | End sector
––––––––––––––––––––––––––––-
1 | 0:00.00 | 3:07.45 | 0 | 14069
2 | 3:07.45 | 1:44.19 | 14070 | 21888
3 | 4:51.64 | 2:18.67 | 21889 | 32305
4 | 7:10.56 | 2:32.32 | 32306 | 43737
5 | 9:43.13 | 2:53.29 | 43738 | 56741
6 | 12:36.42 | 2:23.04 | 56742 | 67470
7 | 14:59.46 | 3:14.22 | 67471 | 82042
8 | 18:13.68 | 2:34.19 | 82043 | 93611
9 | 20:48.12 | 2:07.01 | 93612 | 103137
10 | 22:55.13 | 2:17.42 | 103138 | 113454
11 | 25:12.55 | 2:31.29 | 113455 | 124808
12 | 27:44.09 | 4:18.02 | 124809 | 144160
13 | 32:02.11 | 2:22.20 | 144161 | 154830
14 | 34:24.31 | 2:30.36 | 154831 | 166116
15 | 36:54.67 | 4:31.05 | 166117 | 186446
16 | 41:25.72 | 3:23.16 | 186447 | 201687
17 | 44:49.13 | 6:17.44 | 201688 | 230006
18 | 51:06.57 | 3:08.29 | 230007 | 244135
19 | 54:15.11 | 5:05.09 | 244136 | 267019


Range status and errors

Selected range

Filename C:\Users\Mike3\Desktop\Love is the Song We Sing - San Francisco Nuggets 1965-1970 (Flac)\Disc 2\Various Artists - Love Is the Song We Sing San Francisco Nuggets 1965-1970 - Disc 2 of 4.wav

Peak level 99.8 %
Range quality 100.0 %
Copy CRC 9FF93D93
Copy OK

No errors occurred


AccurateRip summary

Track 1 accurately ripped (confidence 20) [4BCDD24D]
Track 2 accurately ripped (confidence 20) [D7A15ECF]
Track 3 accurately ripped (confidence 20) [869E3DC3]
Track 4 accurately ripped (confidence 20) [DC4BD116]
Track 5 accurately ripped (confidence 20) [FB878BB5]
Track 6 accurately ripped (confidence 19) [481C988C]
Track 7 accurately ripped (confidence 20) [6B140B6A]
Track 8 accurately ripped (confidence 20) [ED0B1C9F]
Track 9 accurately ripped (confidence 20) [9182E585]
Track 10 accurately ripped (confidence 20) [F54F382B]
Track 11 accurately ripped (confidence 20) [659384A0]
Track 12 accurately ripped (confidence 20) [C8A28B18]
Track 13 accurately ripped (confidence 20) [8CDBD4DA]
Track 14 accurately ripped (confidence 20) [4C02EE70]
Track 15 accurately ripped (confidence 20) [15F7C3C0]
Track 16 accurately ripped (confidence 19) [0B3BC1DC]
Track 17 accurately ripped (confidence 20) [A97DCE51]
Track 18 accurately ripped (confidence 19) [54DD5F9F]
Track 19 accurately ripped (confidence 20) [F534902C]

All tracks accurately ripped

End of status report


Exact Audio Copy V0.99 prebeta 5 from 4. May 2009

EAC extraction logfile from 21. December 2009, 1:56

Various / Love is the Song We Sing - San Francisco Nuggets 1965-1970 (Disc 3 - Summer of Love)

Used drive : HP DVD Writer 1040r Adapter: 1 ID: 0

Read mode : Secure
Utilize accurate stream : Yes
Defeat audio cache : Yes
Make use of C2 pointers : No

Read offset correction : 6
Overread into Lead-In and Lead-Out : No
Fill up missing offset samples with silence : Yes
Delete leading and trailing silent blocks : No
Null samples used in CRC calculations : Yes
Used interface : Native Win32 interface for Win NT & 2000

Used output format : User Defined Encoder
Selected bitrate : 1024 kBit/s
Quality : High
Add ID3 tag : No
Command line compressor : C:\Program Files\Exact Audio Copy\FLAC\FLAC.EXE
Additional command line options : -5 -V -T "ARTIST=%a" -T "TITLE=%t" -T "ALBUM=%g" -T "DATE=%y" -T "TRACKNUMBER=%n" -T "GENRE=%m" -T "COMMENT=EAC Flac 1.1.2 -5" %s


TOC of the extracted CD

Track | Start | Length | Start sector | End sector
––––––––––––––––––––––––––––-
1 | 0:00.00 | 6:26.25 | 0 | 28974
2 | 6:26.25 | 2:49.29 | 28975 | 41678
3 | 9:15.54 | 4:20.05 | 41679 | 61183
4 | 13:35.59 | 2:04.08 | 61184 | 70491
5 | 15:39.67 | 3:50.12 | 70492 | 87753
6 | 19:30.04 | 2:24.25 | 87754 | 98578
7 | 21:54.29 | 3:37.31 | 98579 | 114884
8 | 25:31.60 | 2:11.32 | 114885 | 124741
9 | 27:43.17 | 5:20.60 | 124742 | 148801
10 | 33:04.02 | 2:49.56 | 148802 | 161532
11 | 35:53.58 | 7:11.62 | 161533 | 193919
12 | 43:05.45 | 2:31.28 | 193920 | 205272
13 | 45:36.73 | 2:27.20 | 205273 | 216317
14 | 48:04.18 | 2:43.18 | 216318 | 228560
15 | 50:47.36 | 3:58.06 | 228561 | 246416
16 | 54:45.42 | 3:46.12 | 246417 | 263378
17 | 58:31.54 | 4:38.55 | 263379 | 284283
18 | 63:10.34 | 6:41.40 | 284284 | 314398
19 | 69:51.74 | 4:00.01 | 314399 | 332399


Range status and errors

Selected range

Filename C:\Users\Mike3\Desktop\Nuggets\Love is the Song We Sing - San Francisco Nuggets 1965-1970 (Flac)\Disc 3 - Summer of Love\Various - Love is the Song We Sing - San Francisco Nuggets 1965-1970 (Disc 3 - Summer of Love).wav

Peak level 100.0 %
Range quality 100.0 %
Copy CRC 002AD16B
Copy OK

No errors occurred


AccurateRip summary

Track 1 not present in database
Track 2 not present in database
Track 3 not present in database
Track 4 not present in database
Track 5 not present in database
Track 6 not present in database
Track 7 not present in database
Track 8 not present in database
Track 9 not present in database
Track 10 not present in database
Track 11 not present in database
Track 12 not present in database
Track 13 not present in database
Track 14 not present in database
Track 15 not present in database
Track 16 not present in database
Track 17 not present in database
Track 18 not present in database
Track 19 not present in database

None of the tracks are present in the AccurateRip database

End of status report


Exact Audio Copy V0.99 prebeta 5 from 4. May 2009

EAC extraction logfile from 18. November 2009, 23:17

Various Artists / Love Is the Song We Sing: San Francisco Nuggets 1965-1970 - Disc 4 of 4

Used drive : HP DVD Writer 1040r Adapter: 1 ID: 0

Read mode : Secure
Utilize accurate stream : Yes
Defeat audio cache : Yes
Make use of C2 pointers : No

Read offset correction : 6
Overread into Lead-In and Lead-Out : No
Fill up missing offset samples with silence : Yes
Delete leading and trailing silent blocks : No
Null samples used in CRC calculations : Yes
Used interface : Native Win32 interface for Win NT & 2000

Used output format : User Defined Encoder
Selected bitrate : 1024 kBit/s
Quality : High
Add ID3 tag : No
Command line compressor : C:\Program Files\Exact Audio Copy\FLAC\FLAC.EXE
Additional command line options : -5 -V -T "ARTIST=%a" -T "TITLE=%t" -T "ALBUM=%g" -T "DATE=%y" -T "TRACKNUMBER=%n" -T "GENRE=%m" -T "COMMENT=EAC Flac 1.1.2 -5" %s


TOC of the extracted CD

Track | Start | Length | Start sector | End sector
––––––––––––––––––––––––––––-
1 | 0:00.00 | 3:58.17 | 0 | 17866
2 | 3:58.17 | 2:59.10 | 17867 | 31301
3 | 6:57.27 | 5:52.47 | 31302 | 57748
4 | 12:49.74 | 3:54.51 | 57749 | 75349
5 | 16:44.50 | 2:38.62 | 75350 | 87261
6 | 19:23.37 | 2:55.16 | 87262 | 100402
7 | 22:18.53 | 2:47.20 | 100403 | 112947
8 | 25:05.73 | 3:04.22 | 112948 | 126769
9 | 28:10.20 | 2:58.18 | 126770 | 140137
10 | 31:08.38 | 2:36.56 | 140138 | 151893
11 | 33:45.19 | 2:10.11 | 151894 | 161654
12 | 35:55.30 | 3:51.62 | 161655 | 179041
13 | 39:47.17 | 6:11.34 | 179042 | 206900
14 | 45:58.51 | 2:45.21 | 206901 | 219296
15 | 48:43.72 | 2:55.43 | 219297 | 232464
16 | 51:39.40 | 2:13.04 | 232465 | 242443
17 | 53:52.44 | 1:48.58 | 242444 | 250601
18 | 55:41.27 | 4:36.55 | 250602 | 271356


Range status and errors

Selected range

Filename C:\Users\Mike3\Desktop\Love is the Song We Sing - San Francisco Nuggets 1965-1970 (Flac)\Disc 4\Various Artists - Love Is the Song We Sing San Francisco Nuggets 1965-1970 - Disc 4 of 4.wav

Peak level 99.8 %
Range quality 99.9 %
Copy CRC DFD2AE83
Copy OK

No errors occurred


AccurateRip summary

Track 1 accurately ripped (confidence 20) [56F18DAE]
Track 2 accurately ripped (confidence 20) [A7351BA0]
Track 3 accurately ripped (confidence 20) [3930FFC9]
Track 4 accurately ripped (confidence 20) [2210B02D]
Track 5 accurately ripped (confidence 21) [865BC2D3]
Track 6 accurately ripped (confidence 20) [918BCE8C]
Track 7 accurately ripped (confidence 20) [3BF146FB]
Track 8 accurately ripped (confidence 20) [7B4BC1B0]
Track 9 accurately ripped (confidence 20) [982B6AD9]
Track 10 accurately ripped (confidence 20) [2D5BD4EF]
Track 11 accurately ripped (confidence 20) [96A89D37]
Track 12 accurately ripped (confidence 20) [0A16CC1F]
Track 13 accurately ripped (confidence 21) [4F8DCB0C]
Track 14 accurately ripped (confidence 22) [0974F1D0]
Track 15 accurately ripped (confidence 19) [453A8D88]
Track 16 accurately ripped (confidence 19) [0F48FCD8]
Track 17 accurately ripped (confidence 21) [FDFB145E]
Track 18 accurately ripped (confidence 20) [15271527]

All tracks accurately ripped

End of status report

Files
Flac (759 Kbps ABR) = 1.3GB
400 dpi jpeg Scans Included
120 Page 300 dpi pdf book = 1.05GB (Yes! GB! But it's the most gorgeous book you'll ever find outside a bookstore's photography section.)





No mirrors