Subcategories

Loverboy - Wildside (1987)

Posted By: popsakov
Loverboy - Wildside (1987)

Loverboy - Wildside (1987)
EAC Rip | FLAC (Img) + Cue + Log ~ 357 Mb | MP3 CBR320 ~ 117 Mb
Full Scans (PNG, 400 dpi) ~ 234 Mb | RAR 5% Recovery
Rock, Pop Rock, Arena Rock | Columbia #CK 40893

Loverboy is a Canadian rock band formed in 1979 in Calgary, Alberta. Loverboy's hit singles, particularly "Turn Me Loose" and "Working for the Weekend", have become arena rock staples and are still heard on many classic rock and classic hits radio stations across Canada. The band is based in Vancouver. Throughout the 1980s, Loverboy accumulated numerous hit songs in Canada and the United States, earning four multi-platinum albums and selling millions of records. After being rejected by many American record labels, they signed with Columbia/CBS Records Canada and began recording their first album on March 20, 1980. Loverboy's founding members were lead singer Mike Reno, guitarist Paul Dean, keyboardist Doug Johnson, bassist Scott Smith, and drummer Matt Frenette. Wildside is an album released in September 1987. This was the first album that the band had released that did not go platinum.
~ Wiki
Loverboy - Wildside (1987)


***************

Loverboy - Wildside (1987)

Loverboy - Wildside (1987)

Track List:

01. Notorious [4:39]
02. Walkin' On Fire [4:17]
03. Break It To Me Gently [4:37]
04. Love Will Rise Again [4:29]
05. Can't Get Much Better [4:05]
06. Hometown Hero [4:13]
07. Wildside [3:31]
08. Don't Let Go [3:37]
09. That's Where My Money Goes [4:14]
10. Read My Lips [5:03]
11. Don't Keep Me In The Dark [5:57]

Personnel:
Mike Reno - lead vocals
Paul Dean - guitar, backing vocals
Doug Johnson - keyboards
Scott Smith - bass
Matt Frenette - drums

Exact Audio Copy V1.0 beta 3 from 29. August 2011

EAC extraction logfile from 11. October 2017, 19:35

Loverboy / Wildside

Used drive : PIONEER BD-RW BDR-TD03 Adapter: 0 ID: 1

Read mode : Secure
Utilize accurate stream : Yes
Defeat audio cache : Yes
Make use of C2 pointers : No

Read offset correction : 667
Overread into Lead-In and Lead-Out : No
Fill up missing offset samples with silence : Yes
Delete leading and trailing silent blocks : No
Null samples used in CRC calculations : Yes
Used interface : Native Win32 interface for Win NT & 2000

Used output format : User Defined Encoder
Selected bitrate : 768 kBit/s
Quality : High
Add ID3 tag : No
Command line compressor : C:\Program Files (x86)\Exact Audio Copy\FLAC\FLAC.EXE
Additional command line options : -6 -V -T "ARTIST=%artist%" -T "TITLE=%title%" -T "ALBUM=%albumtitle%" -T "DATE=%year%" -T "TRACKNUMBER=%tracknr%" -T "GENRE=%genre%" -T "COMMENT=%comment%" -T "BAND=%albuminterpret%" -T "ALBUMARTIST=%albuminterpret%" -T "COMPOSER=%composer%" %haslyrics%–tag-from-file=LYRICS="%lyricsfile%"%haslyrics% -T "DISCNUMBER=%cdnumber%" -T "TOTALDISCS=%totalcds%" -T "TOTALTRACKS=%numtracks%" %hascover%–picture="%coverfile%"%hascover% %source% -o %dest%


TOC of the extracted CD

Track | Start | Length | Start sector | End sector
––––––––––––––––––––––––––––-
1 | 0:00.00 | 4:39.20 | 0 | 20944
2 | 4:39.20 | 4:17.05 | 20945 | 40224
3 | 8:56.25 | 4:36.65 | 40225 | 60989
4 | 13:33.15 | 4:29.32 | 60990 | 81196
5 | 18:02.47 | 4:04.65 | 81197 | 99561
6 | 22:07.37 | 4:13.03 | 99562 | 118539
7 | 26:20.40 | 3:31.15 | 118540 | 134379
8 | 29:51.55 | 3:36.42 | 134380 | 150621
9 | 33:28.22 | 4:13.43 | 150622 | 169639
10 | 37:41.65 | 5:03.17 | 169640 | 192381
11 | 42:45.07 | 5:56.65 | 192382 | 219146


Range status and errors

Selected range

Filename C:\Users\Deris\Desktop\New folder\Loverboy - Wildside.wav

Peak level 100.0 %
Extraction speed 4.6 X
Range quality 99.9 %
Test CRC 46FCD7D8
Copy CRC 46FCD7D8
Copy OK

No errors occurred


AccurateRip summary

Track 1 accurately ripped (confidence 27) [8276BB08] (AR v2)
Track 2 accurately ripped (confidence 26) [B3FE22BC] (AR v2)
Track 3 accurately ripped (confidence 26) [80BDFA2A] (AR v2)
Track 4 accurately ripped (confidence 26) [44840507] (AR v2)
Track 5 accurately ripped (confidence 25) [95D49FC7] (AR v2)
Track 6 accurately ripped (confidence 26) [A6194F01] (AR v2)
Track 7 accurately ripped (confidence 25) [6442B612] (AR v2)
Track 8 accurately ripped (confidence 25) [7A91DAC2] (AR v2)
Track 9 accurately ripped (confidence 25) [A5CB8495] (AR v2)
Track 10 accurately ripped (confidence 25) [7E12F387] (AR v2)
Track 11 accurately ripped (confidence 24) [7BCEB31E] (AR v2)

All tracks accurately ripped

End of status report

–– CUETools DB Plugin V2.1.3

[CTDB TOCID: QHbIWf7Ub3jvpsiKZTeeBIvJc54-] found, Submit result: QHbIWf7Ub3jvpsiKZTeeBIvJc54- has been confirmed
[78dfa50b] (51/55) Accurately ripped
[77ceb850] (01/55) No match
[626a3206] (01/55) No match
[eecb5506] (01/55) No match
[e2515e73] (01/55) No match


==== Log checksum 9251C0285FAA6977E43152AA68C4688260795042CB7F02D908EFB288DEBD2732 ====

foobar2000 1.3.16 / Dynamic Range Meter 1.1.1
log date: 2017-10-17 00:27:32

––––––––––––––––––––––––––––––––––––––––
Analyzed: Loverboy / Wildside
––––––––––––––––––––––––––––––––––––––––

DR Peak RMS Duration Track
––––––––––––––––––––––––––––––––––––––––
DR12 0.00 dB -13.34 dB 4:39 01-Notorious
DR12 0.00 dB -13.52 dB 4:17 02-Walkin' On Fire
DR12 0.00 dB -12.57 dB 4:37 03-Break It To Me Gently
DR12 0.00 dB -13.84 dB 4:29 04-Love Will Rise Again
DR13 0.00 dB -14.13 dB 4:05 05-Can't Get Much Better
DR11 0.00 dB -12.67 dB 4:13 06-Hometown Hero
DR13 0.00 dB -13.83 dB 3:31 07-Wildside
DR13 0.00 dB -13.84 dB 3:37 08-Don't Let Go
DR12 0.00 dB -13.86 dB 4:14 09-That's Where My Money Goes
DR11 0.00 dB -12.72 dB 5:03 10-Read My Lips
DR12 0.00 dB -14.42 dB 5:57 11-Don't Keep Me In The Dark
––––––––––––––––––––––––––––––––––––––––

Number of tracks: 11
Official DR value: DR12

Samplerate: 44100 Hz
Channels: 2
Bits per sample: 16
Bitrate: 977 kbps
Codec: FLAC
================================================================================

[CUETools log; Date: 17.10.2017 0:26:08; Version: 2.1.5]
[CTDB TOCID: QHbIWf7Ub3jvpsiKZTeeBIvJc54-] found.
Track | CTDB Status
1 | (55/56) Accurately ripped
2 | (56/56) Accurately ripped
3 | (56/56) Accurately ripped
4 | (56/56) Accurately ripped
5 | (55/56) Accurately ripped
6 | (56/56) Accurately ripped
7 | (54/56) Accurately ripped
8 | (56/56) Accurately ripped
9 | (55/56) Accurately ripped
10 | (56/56) Accurately ripped
11 | (54/56) Accurately ripped
[AccurateRip ID: 0013a5ce-00a990db-8f0b690b] found.
Track [ CRC | V2 ] Status
01 [24100081|8276bb08] (23+27/68) Accurately ripped
02 [b6209d26|b3fe22bc] (23+26/68) Accurately ripped
03 [e8813ea3|80bdfa2a] (23+26/68) Accurately ripped
04 [f4456091|44840507] (23+26/68) Accurately ripped
05 [b688fc4f|95d49fc7] (23+25/67) Accurately ripped
06 [b39bb497|a6194f01] (22+26/67) Accurately ripped
07 [eeb57a78|6442b612] (23+25/67) Accurately ripped
08 [22a446a2|7a91dac2] (23+25/67) Accurately ripped
09 [1ec1b559|a5cb8495] (23+25/67) Accurately ripped
10 [5508bfbf|7e12f387] (23+25/67) Accurately ripped
11 [e2a0a12d|7bceb31e] (23+24/66) Accurately ripped
Offsetted by -128:
01 [0a5d63a2] (06/68) Accurately ripped
02 [8da61c69] (06/68) Accurately ripped
03 [18f2ead3] (06/68) Accurately ripped
04 [eaadf5a7] (06/68) Accurately ripped
05 [9652f430] (06/67) Accurately ripped
06 [451240de] (06/67) Accurately ripped
07 [ec91fc4c] (06/67) Accurately ripped
08 [5d1d94ed] (06/67) Accurately ripped
09 [f4e32f74] (06/67) Accurately ripped
10 [7a8d65ff] (06/67) Accurately ripped
11 [a7ebe12d] (06/66) Accurately ripped
Offsetted by 28:
01 [1ea2d9d8] (03/68) Accurately ripped
02 [e13d141c] (03/68) Accurately ripped
03 [a7b9bd89] (03/68) Accurately ripped
04 [8860eea4] (03/68) Accurately ripped
05 [fb5215f3] (03/67) Accurately ripped
06 [7c403d0b] (03/67) Accurately ripped
07 [19467b8f] (03/67) Accurately ripped
08 [d965d6c0] (03/67) Accurately ripped
09 [fe9f6f53] (03/67) Accurately ripped
10 [10bfb75a] (03/67) Accurately ripped
11 [d7782b2d] (03/66) Accurately ripped

Track Peak [ CRC32 ] [W/O NULL] [ LOG ]
– 100,0 [46FCD7D8] [FEC67545] CRC32
01 100,0 [0A9BE2A1] [69CB8502]
02 100,0 [E4EFEAAF] [A6C65333]
03 100,0 [D4A29E05] [65056951]
04 100,0 [E091A714] [603161BB]
05 100,0 [9EB3A05C] [2DD32A1C]
06 100,0 [A6D49896] [144CD0E8]
07 100,0 [08599386] [33789B6E]
08 100,0 [FDA6C705] [E90BF2AF]
09 100,0 [A5650615] [C6568C97]
10 100,0 [E79602B5] [7E43C732]
11 100,0 [21C2FC7D] [ECB64318]

Loverboy - Wildside (1987)

All thanks go to Boris1

>>> Loverboy in my Blog <<<

Download from icerbox.com: