Tags
Language
Tags

Lucifer's Friend - I'm Just A Rock'N'Roll Singer (1974) {1997, Reissue} Repost

Posted By: popsakov
Lucifer's Friend - I'm Just A Rock'N'Roll Singer (1974) {1997, Reissue} Repost

Lucifer's Friend - I'm Just A Rock'N'Roll Singer (1974) {1997, Reissue}
EAC Rip | FLAC (Img) + Cue + Log ~ 323 Mb | MP3 CBR320 ~ 106 Mb
Full Scans ~ 89 Mb | 00:44:04 | RAR 5% Recovery
Progressive Rock, Hard Rock, Classic Rock | Repertoire Records #PMS 7042-WP

On their third album, Lucifer's Friend took a new tack: instead of being a progressive band or a hard rock band, they decided to incorporate both styles into a more ambitious sound that also worked in elements of soul and jazz. The resulting album, I'm Just a Rock 'n' Roll Singer, lacks the coherent flow that defines a good album but offers an array of tuneful, well-crafted tracks nonetheless. By this time, the band had learned to make their songwriting the focus of each track and tamed the instrumental soloing that overwhelmed Where the Groupies Killed the Blues. As a result, the tracks are listener friendly, yet have their own distinctive feel; a notable example is "Groovin' Stone," a song that was their most straightforward hard rock song to date, yet also offered a number of interesting keyboard and percussive shadings that the listener wouldn't normally expect from such a tune. Other standouts include "Blind Freedom," a jazzy tune that features strong harmonies (all overdubbed by lead vocalist John Lawton) plus some serpentine electric piano work from Peter Hecht, and the title track, a tongue-in-cheek sendup of rock & roll life that combines an old fashioned rock & roll melody with a giant wall of sound production (complete with a Blood Sweat and Tears-style horn section). The downside of I'm Just a Rock 'n' Roll Singer is that it tries out so many different musical elements out that it feels more like a compilation of songs than a real album. It might also annoy some prog-rock fans with the overt pop leanings of tracks like "Groovin' Stone" and the title track. Despite these caveats, this is a polished and listener friendly album that will entertain anyone interested in Lucifer's Friend.

~ Donald A. Guarisco, All Music

***************

Track List:

01. Groovin' Stone [0:05:18.52]
02. Closed Curtains [0:06:02.58]
03. Born On The Run [0:03:51.20]
04. Blind Freedom [0:06:24.05]
05. Rock 'n' Roll Singer [0:04:21.17]
06. Lonely City Days [0:04:58.43]
07. Mary's Breakdown [0:05:52.72]
08. Song For Louie [0:07:14.33]

Exact Audio Copy V0.99 prebeta 4 from 23. January 2008

Отчёт EAC об извлечении, выполненном 6. декабря 2011, 19:50

Lucifer's Friend / I'm Just A Rock 'n' Roll Singer

Дисковод: ASUS DRW-22B2L b Adapter: 0 ID: 0

Режим чтения : Достоверность
Использование точного потока : Да
Отключение кэша аудио : Да
Использование указателей C2 : Нет

Коррекция смещения при чтении : 6
Способность читать области Lead-in и Lead-out : Нет
Заполнение пропущенных сэмплов тишиной : Да
Удаление блоков с тишиной в начале и конце : Нет
При вычислениях CRC использовались нулевые сэмплы : Да
Интерфейс : Встроенный Win32-интерфейс для Win NT/2000

Выходной формат : Внутренние WAV-операции
Формат сэмплов : 44.100 Гц; 16 бит; стерео


TOC извлечённого CD

Трек | Старт | Длительность | Начальный сектор | Конечный сектор
––––––––––––––––––––––––––––––––––-
1 | 0:00.00 | 5:18.52 | 0 | 23901
2 | 5:18.52 | 6:02.58 | 23902 | 51109
3 | 11:21.35 | 3:51.20 | 51110 | 68454
4 | 15:12.55 | 6:24.05 | 68455 | 97259
5 | 21:36.60 | 4:21.17 | 97260 | 116851
6 | 25:58.02 | 4:58.43 | 116852 | 139244
7 | 30:56.45 | 5:52.72 | 139245 | 165716
8 | 36:49.42 | 7:14.33 | 165717 | 198299


Характеристики диапазона извлечения и сообщения об ошибках

Выбранный диапазон

Имя файла C:\Documents and Settings\booddoom\Рабочий стол\Новая папка\Lucifer's Friend - I'm Just A Rock 'n' Roll Singer.wav

Пиковый уровень 98.4 %
Качество диапазона 100.0 %
CRC теста 4DEE37EF
CRC копии 4DEE37EF
Копирование… OK

Ошибок не произошло


AccurateRip: сводка

Трек 1 точное извлечение (доверие 1) [9F9A3963]
Трек 2 точное извлечение (доверие 1) [71D170A4]
Трек 3 точное извлечение (доверие 1) [D97BDAF1]
Трек 4 точное извлечение (доверие 1) [C140BF0A]
Трек 5 точное извлечение (доверие 1) [A217CAFB]
Трек 6 точное извлечение (доверие 1) [9A635A30]
Трек 7 точное извлечение (доверие 1) [DE927BB3]
Трек 8 точное извлечение (доверие 1) [04B81109]

Все треки извлечены точно

Конец отчёта

[CUETools log; Date: 20.12.2017 14:00:26; Version: 2.1.5]
[CTDB TOCID: r6Gf.i8xWOveeRY7n6C8QUuHEY4-] found.
Track | CTDB Status
1 | (8/8) Accurately ripped
2 | (8/8) Accurately ripped
3 | (8/8) Accurately ripped
4 | (7/8) Accurately ripped
5 | (7/8) Accurately ripped
6 | (7/8) Accurately ripped
7 | (8/8) Accurately ripped
8 | (8/8) Accurately ripped
[AccurateRip ID: 000d22a9-0057b33e-620a5408] found.
Track [ CRC | V2 ] Status
01 [9f9a3963|833d09e1] (0+3/3) Accurately ripped
02 [71d170a4|ed680f5e] (0+3/3) Accurately ripped
03 [d97bdaf1|2c59a48c] (0+3/3) Accurately ripped
04 [c140bf0a|c8d08762] (0+3/3) Accurately ripped
05 [a217cafb|9aaff0aa] (0+3/3) Accurately ripped
06 [9a635a30|17e15092] (0+3/3) Accurately ripped
07 [de927bb3|b974c21f] (0+3/3) Accurately ripped
08 [04b81109|625cf9b3] (0+3/3) Accurately ripped

Track Peak [ CRC32 ] [W/O NULL] [ LOG ]
– 98,4 [4DEE37EF] [378389D4] CRC32
01 98,4 [6ED62423] [AD159BF0]
02 98,4 [5649C4D3] [6C843D1A]
03 98,4 [57992340] [FEEE3E27]
04 98,4 [1658AB16] [C707B245]
05 98,4 [6DF0CC25] [C69A860A]
06 98,4 [06FE7836] [61D661CD]
07 98,4 [B84619F6] [C2944CFB]
08 98,4 [7B6120B6] [91F33F4F]

Lucifer's Friend - I'm Just A Rock'N'Roll Singer (1974) {1997, Reissue} Repost


All thanks go to the original ripper(s) …

>>> Lucifer's Friend in my Blog <<<

DOWNLOAD: