Tags
Language
Tags

Lucinda Williams - Runnin' Down A Dream: A Tribute To Tom Petty (2021) {Lu's Jukebox In Studio Concert Series Vol. 1}

Posted By: popsakov
Lucinda Williams - Runnin' Down A Dream: A Tribute To Tom Petty (2021) {Lu's Jukebox In Studio Concert Series Vol. 1}

Lucinda Williams - Runnin' Down A Dream: A Tribute To Tom Petty (2021) {Lu's Jukebox In Studio Concert Series Vol. 1}
EAC Rip | FLAC (Tracks) + Cue + m3u + Log ~ 419 Mb | MP3 CBR320 ~ 185 Mb
Full Scans | 00:55:34 | RAR 5% Recovery
Heartland Rock / Alternative Country Rock / Contemporary Folk / Americana
Highway 20 Records #H2007

Lucinda Williams is a daughter of the American South, born in Louisiana, who is proud of her heritage while also understanding the contradictions and the baggage that come with that. Tom Petty was a native Floridian who also loved the South without harboring illusions about it, and so it makes sense that Williams would be a Petty fan, and not simply as one gifted songwriter respecting another. As part of her Lu’s Jukebox series, designed to help independent music venues shut down during the COVID-19 pandemic, Williams has cut a set of her favorite Tom Petty tunes, and Runnin’ Down a Dream: A Tribute to Tom Petty is long on songs about Southern life, including “Gainesville,” “Down South,” “Rebels,” “Southern Accents,” and “Louisiana Rain.” It’s on these songs that she seems most committed, with a sense of shared experience informing her vocals and adding depth to her delivery. That said, Williams sounds very much at home on all of the 13 songs she covers; “You Wreck Me” feels like it was written with her defiant vulnerability in mind; she brings a sweet and subtle funk to “Wildflowers,” and she and her band make the most of the killer groove at the heart of “You Don't Know How It Feels.” Williams recorded this material live in the studio with her road band backing her up, and that was the right approach for this music—if the wobble in her voice is more pronounced than it once was, it works like a charm in this context, and the players find their way through the melodies with assurance, control, and joyous force. The simplicity of Runnin’ Down a Dream is one of its virtues; these covers were documented with love and without overthinking the process, and hearing Williams explore the world inside Petty’s songs will engage fans of either artist.

~ Mark Deming, All Music

***************

Track List:

01. Rebels [4:59]
02. Runnin' Down a Dream [4:41]
03. Gainesville [4:12]
04. Louisiana Rain [4:50]
05. I Won't Back Down [3:13]
06. A Face in the Crowd [4:09]
07. Wildflowers [3:29]
08. You Wreck Me [3:26]
09. Room at the Top [5:54]
10. You Don't Know How It Feels [3:58]
11. Down South [3:32]
12. Southern Accents [4:23]
13. Stolen Moments [4:54]

Exact Audio Copy V1.6 from 23. October 2020

EAC extraction logfile from 26. April 2021, 20:50

Lucinda Williams / Lu's Jukebox, Vol. 1: Runnin' Down a Dream - A Tribute to Tom Petty

Used drive : ASUS BW-12D1S-U Adapter: 1 ID: 0

Read mode : Secure
Utilize accurate stream : Yes
Defeat audio cache : Yes
Make use of C2 pointers : No

Read offset correction : 667
Overread into Lead-In and Lead-Out : No
Fill up missing offset samples with silence : Yes
Delete leading and trailing silent blocks : No
Null samples used in CRC calculations : Yes
Used interface : Native Win32 interface for Win NT & 2000
Gap handling : Appended to previous track

Used output format : User Defined Encoder
Selected bitrate : 1024 kBit/s
Quality : High
Add ID3 tag : No
Command line compressor : C:\Program Files (x86)\Exact Audio Copy\FLAC\FLAC.EXE
Additional command line options : -V -8 -T "Date=%year%" -T "Genre=%genre%" %source%


TOC of the extracted CD

Track | Start | Length | Start sector | End sector
––––––––––––––––––––––––––––-
1 | 0:00.00 | 4:58.25 | 0 | 22374
2 | 4:58.25 | 4:40.48 | 22375 | 43422
3 | 9:38.73 | 4:11.32 | 43423 | 62279
4 | 13:50.30 | 4:49.01 | 62280 | 83955
5 | 18:39.31 | 3:12.47 | 83956 | 98402
6 | 21:52.03 | 4:08.30 | 98403 | 117032
7 | 26:00.33 | 3:28.64 | 117033 | 132696
8 | 29:29.22 | 3:25.59 | 132697 | 148130
9 | 32:55.06 | 5:53.11 | 148131 | 174616
10 | 38:48.17 | 3:57.41 | 174617 | 192432
11 | 42:45.58 | 3:31.52 | 192433 | 208309
12 | 46:17.35 | 4:22.42 | 208310 | 228001
13 | 50:40.02 | 4:53.30 | 228002 | 250006


Track 1

Filename E:\Torrents of Autumn\Williams, Lucinda [2021] Lu's Jukebox Vol. 1~ Runnin' Down a Dream - A Tribute to Tom Petty\Lucinda Williams - Lu's Jukebox, Vol. 1~ Runnin' Down a Dream - A Tribute to Tom Petty - 01. Rebels.wav

Pre-gap length 0:00:02.00

Peak level 99.0 %
Extraction speed 4.8 X
Track quality 100.0 %
Test CRC 45F3A8DC
Copy CRC 45F3A8DC
Copy OK

Track 2

Filename E:\Torrents of Autumn\Williams, Lucinda [2021] Lu's Jukebox Vol. 1~ Runnin' Down a Dream - A Tribute to Tom Petty\Lucinda Williams - Lu's Jukebox, Vol. 1~ Runnin' Down a Dream - A Tribute to Tom Petty - 02. Runnin' Down a Dream.wav

Peak level 99.9 %
Extraction speed 5.4 X
Track quality 100.0 %
Test CRC F87D039D
Copy CRC F87D039D
Copy OK

Track 3

Filename E:\Torrents of Autumn\Williams, Lucinda [2021] Lu's Jukebox Vol. 1~ Runnin' Down a Dream - A Tribute to Tom Petty\Lucinda Williams - Lu's Jukebox, Vol. 1~ Runnin' Down a Dream - A Tribute to Tom Petty - 03. Gainesville.wav

Peak level 98.9 %
Extraction speed 5.8 X
Track quality 100.0 %
Test CRC 5FCABFA1
Copy CRC 5FCABFA1
Copy OK

Track 4

Filename E:\Torrents of Autumn\Williams, Lucinda [2021] Lu's Jukebox Vol. 1~ Runnin' Down a Dream - A Tribute to Tom Petty\Lucinda Williams - Lu's Jukebox, Vol. 1~ Runnin' Down a Dream - A Tribute to Tom Petty - 04. Louisiana Rain.wav

Peak level 99.1 %
Extraction speed 6.3 X
Track quality 100.0 %
Test CRC BD314362
Copy CRC BD314362
Copy OK

Track 5

Filename E:\Torrents of Autumn\Williams, Lucinda [2021] Lu's Jukebox Vol. 1~ Runnin' Down a Dream - A Tribute to Tom Petty\Lucinda Williams - Lu's Jukebox, Vol. 1~ Runnin' Down a Dream - A Tribute to Tom Petty - 05. I Won't Back Down.wav

Peak level 99.9 %
Extraction speed 6.3 X
Track quality 100.0 %
Test CRC E6E47EF4
Copy CRC E6E47EF4
Copy OK

Track 6

Filename E:\Torrents of Autumn\Williams, Lucinda [2021] Lu's Jukebox Vol. 1~ Runnin' Down a Dream - A Tribute to Tom Petty\Lucinda Williams - Lu's Jukebox, Vol. 1~ Runnin' Down a Dream - A Tribute to Tom Petty - 06. A Face in the Crowd.wav

Peak level 98.2 %
Extraction speed 6.8 X
Track quality 100.0 %
Test CRC B5525258
Copy CRC B5525258
Copy OK

Track 7

Filename E:\Torrents of Autumn\Williams, Lucinda [2021] Lu's Jukebox Vol. 1~ Runnin' Down a Dream - A Tribute to Tom Petty\Lucinda Williams - Lu's Jukebox, Vol. 1~ Runnin' Down a Dream - A Tribute to Tom Petty - 07. Wildflowers.wav

Peak level 98.1 %
Extraction speed 6.8 X
Track quality 100.0 %
Test CRC 9FE54C14
Copy CRC 9FE54C14
Copy OK

Track 8

Filename E:\Torrents of Autumn\Williams, Lucinda [2021] Lu's Jukebox Vol. 1~ Runnin' Down a Dream - A Tribute to Tom Petty\Lucinda Williams - Lu's Jukebox, Vol. 1~ Runnin' Down a Dream - A Tribute to Tom Petty - 08. You Wreck Me.wav

Peak level 99.8 %
Extraction speed 7.2 X
Track quality 100.0 %
Test CRC EF3B0D00
Copy CRC EF3B0D00
Copy OK

Track 9

Filename E:\Torrents of Autumn\Williams, Lucinda [2021] Lu's Jukebox Vol. 1~ Runnin' Down a Dream - A Tribute to Tom Petty\Lucinda Williams - Lu's Jukebox, Vol. 1~ Runnin' Down a Dream - A Tribute to Tom Petty - 09. Room at the Top.wav

Peak level 98.3 %
Extraction speed 8.0 X
Track quality 100.0 %
Test CRC 85230F9F
Copy CRC 85230F9F
Copy OK

Track 10

Filename E:\Torrents of Autumn\Williams, Lucinda [2021] Lu's Jukebox Vol. 1~ Runnin' Down a Dream - A Tribute to Tom Petty\Lucinda Williams - Lu's Jukebox, Vol. 1~ Runnin' Down a Dream - A Tribute to Tom Petty - 10. You Don't Know How It Feels.wav

Peak level 99.9 %
Extraction speed 7.9 X
Track quality 100.0 %
Test CRC 7ABEC9A0
Copy CRC 7ABEC9A0
Copy OK

Track 11

Filename E:\Torrents of Autumn\Williams, Lucinda [2021] Lu's Jukebox Vol. 1~ Runnin' Down a Dream - A Tribute to Tom Petty\Lucinda Williams - Lu's Jukebox, Vol. 1~ Runnin' Down a Dream - A Tribute to Tom Petty - 11. Down South.wav

Peak level 99.2 %
Extraction speed 8.0 X
Track quality 100.0 %
Test CRC 1458ED78
Copy CRC 1458ED78
Copy OK

Track 12

Filename E:\Torrents of Autumn\Williams, Lucinda [2021] Lu's Jukebox Vol. 1~ Runnin' Down a Dream - A Tribute to Tom Petty\Lucinda Williams - Lu's Jukebox, Vol. 1~ Runnin' Down a Dream - A Tribute to Tom Petty - 12. Southern Accents.wav

Peak level 98.5 %
Extraction speed 8.5 X
Track quality 100.0 %
Test CRC 73812846
Copy CRC 73812846
Copy OK

Track 13

Filename E:\Torrents of Autumn\Williams, Lucinda [2021] Lu's Jukebox Vol. 1~ Runnin' Down a Dream - A Tribute to Tom Petty\Lucinda Williams - Lu's Jukebox, Vol. 1~ Runnin' Down a Dream - A Tribute to Tom Petty - 13. Stolen Moments.wav

Peak level 98.8 %
Extraction speed 8.7 X
Track quality 100.0 %
Test CRC C2C35661
Copy CRC C2C35661
Copy OK

No errors occurred

End of status report

–– CUETools DB Plugin V2.1.6

[CTDB TOCID: 9u7II1__n0.8nP.G8L3xR0Ay1dQ-] found
Submit result: 9u7II1__n0.8nP.G8L3xR0Ay1dQ- has been confirmed
Track | CTDB Status
1 | (13/13) Accurately ripped
2 | (13/13) Accurately ripped
3 | (13/13) Accurately ripped
4 | (13/13) Accurately ripped
5 | (13/13) Accurately ripped
6 | (13/13) Accurately ripped
7 | (13/13) Accurately ripped
8 | (13/13) Accurately ripped
9 | (13/13) Accurately ripped
10 | (13/13) Accurately ripped
11 | (13/13) Accurately ripped
12 | (13/13) Accurately ripped
13 | (13/13) Accurately ripped


==== Log checksum F4B216CAC57977F53E1488D158A3C6EE8D0B00D3B3E2CEF3B54054EA90FC8489 ====

See also:

Lucinda Williams - Good Souls Better Angels (2020)

All thanks go to DoobieBro

>>> My Blog <<<

DOWNLOAD: